Поиск

(Fusion, Post-Bop) [CD] Isao Suzuki Trio/Quartet - Blow Up - 1973 (2013 Japan Edition), FLAC (tracks+.cue), lossless

(Fusion, Post-Bop) [CD] Isao Suzuki Trio/Quartet - Blow Up - 1973 (2013 Japan Edition), FLAC (tracks+.cue), lossless
Битрейт аудио:
lossless
Треклист:
Isao Suzuki Trio/Quartet - Blow Up
Жанр: Fusion, Post-Bop
Носитель: CD
Страна-производитель диска (релиза): Япония
Год издания: 2013
Издатель (лейбл): Think! Records
Номер по каталогу: THCD-238
Аудиокодек: FLAC (*.flac)
Тип рипа: tracks+.cue
Битрейт аудио: lossless
Продолжительность: 34:34
Источник (релизер): wikieup
Наличие сканов в содержимом раздачи: нет
Треклист:
01. Aqua Marine (Suzuki) - 4:58
02. Everything Happens to Me (Adair-Dennis) - 5:47
03. Blow Up (Suzuki) - 7:30
04. Like It Is (Garner) - 5:36
05. I Can't Get Started (Gershwin-Duke) - 5:01
06. Low Flight (Suzuki) - 5:42
Состав:
Isao Suzuki - bass, cello (#5,6)
Kunihiko Sugano - piano, Fender-piano (#1)
Takashi Mizuhashi - bass (#1,3,5,6)
George Otsuka - drums
Recorded at Aoi Studio, Tokyo on March 29-30, 1973.
 
Лог создания рипа
Exact Audio Copy V1.0 beta 3 from 29. August 2011
EAC extraction logfile from 18. March 2014, 12:58
Isao Suzuki Trio / Quartet / Blow Up [2013 Reissue]
Used drive : TSSTcorpDVD-ROM TS-U333B Adapter: 0 ID: 1
Read mode : Secure
Utilize accurate stream : Yes
Defeat audio cache : Yes
Make use of C2 pointers : No
Read offset correction : 6
Overread into Lead-In and Lead-Out : No
Fill up missing offset samples with silence : Yes
Delete leading and trailing silent blocks : No
Null samples used in CRC calculations : Yes
Used interface : Native Win32 interface for Win NT & 2000
Gap handling : Appended to previous track
Used output format : User Defined Encoder
Selected bitrate : 1024 kBit/s
Quality : High
Add ID3 tag : No
Command line compressor : C:\Program Files\Exact Audio Copy\Flac\flac.exe
Additional command line options : -8 -V -T "ARTIST=%artist%" -T "TITLE=%title%" -T "ALBUM=%albumtitle%" -T "DATE=%year%" -T "TRACKNUMBER=%tracknr%" -T "GENRE=%genre%" -T "PERFORMER=%albuminterpret%" -T "COMPOSER=%composer%" %haslyrics%--tag-from-file=LYRICS="%lyricsfile%"%haslyrics% -T "ALBUMARTIST=%albumartist%" -T "DISCNUMBER=%cdnumber%" -T "TOTALDISCS=%totalcds%" -T "TOTALTRACKS=%numtracks%" -T "COMMENT=%comment%" %source% -o %dest%
TOC of the extracted CD
Track | Start | Length | Start sector | End sector
---------------------------------------------------------
1 | 0:00.00 | 4:57.50 | 0 | 22324
2 | 4:57.50 | 5:46.58 | 22325 | 48332
3 | 10:44.33 | 7:30.35 | 48333 | 82117
4 | 18:14.68 | 5:36.25 | 82118 | 107342
5 | 23:51.18 | 5:01.22 | 107343 | 129939
6 | 28:52.40 | 5:42.08 | 129940 | 155597
Track 1
Filename C:\EAC Rips\01 - Aqua Marine.wav
Pre-gap length 0:00:02.00
Peak level 100.0 %
Extraction speed 1.1 X
Track quality 100.0 %
Test CRC A50EBFB2
Copy CRC A50EBFB2
Accurately ripped (confidence 8) [D79AD914] (AR v2)
Copy OK
Track 2
Filename C:\EAC Rips\02 - Everything Happens To Me.wav
Pre-gap length 0:00:01.41
Peak level 99.4 %
Extraction speed 1.3 X
Track quality 100.0 %
Test CRC B2B8B839
Copy CRC B2B8B839
Accurately ripped (confidence 8) [D755499C] (AR v2)
Copy OK
Track 3
Filename C:\EAC Rips\03 - Blow Up.wav
Pre-gap length 0:00:01.45
Peak level 100.0 %
Extraction speed 1.5 X
Track quality 100.0 %
Test CRC 2632C573
Copy CRC 2632C573
Accurately ripped (confidence 8) [CF200DE9] (AR v2)
Copy OK
Track 4
Filename C:\EAC Rips\04 - Like It Is.wav
Pre-gap length 0:00:01.42
Peak level 99.9 %
Extraction speed 1.5 X
Track quality 99.9 %
Test CRC 83056DB1
Copy CRC 83056DB1
Accurately ripped (confidence 8) [2BBC6F57] (AR v2)
Copy OK
Track 5
Filename C:\EAC Rips\05 - I Can't Get Started.wav
Pre-gap length 0:00:01.38
Peak level 92.3 %
Extraction speed 1.7 X
Track quality 100.0 %
Test CRC E71E951E
Copy CRC E71E951E
Accurately ripped (confidence 8) [C8F7F4D8] (AR v2)
Copy OK
Track 6
Filename C:\EAC Rips\06 - Low Flight.wav
Pre-gap length 0:00:01.34
Peak level 93.8 %
Extraction speed 1.9 X
Track quality 100.0 %
Test CRC 7650955F
Copy CRC 7650955F
Accurately ripped (confidence 8) [58E16560] (AR v2)
Copy OK
All tracks accurately ripped
No errors occurred
End of status report
==== Log checksum 101BEF5830A48D2417EED590A79D97119436CC667E7181DA6185B9A25E4BEAD8 ====
 
Содержание индексной карты (.CUE)
REM GENRE Jazz
REM DATE 1973
REM DISCID 50081A06
REM COMMENT "ExactAudioCopy v1.0b3"
PERFORMER "Isao Suzuki"
TITLE "Blow Up"
FILE "01 - Aqua Marine.wav" WAVE
TRACK 01 AUDIO
TITLE "Aqua Marine"
PERFORMER "Isao Suzuki"
INDEX 01 00:00:00
TRACK 02 AUDIO
TITLE "Everything Happens to Me"
PERFORMER "Isao Suzuki"
INDEX 00 04:56:19
FILE "02 - Everything Happens to Me.wav" WAVE
INDEX 01 00:00:00
TRACK 03 AUDIO
TITLE "Blow Up"
PERFORMER "Isao Suzuki"
INDEX 00 05:45:24
FILE "03 - Blow Up.wav" WAVE
INDEX 01 00:00:00
TRACK 04 AUDIO
TITLE "Like It Is"
PERFORMER "Isao Suzuki"
INDEX 00 07:29:03
FILE "04 - Like It Is.wav" WAVE
INDEX 01 00:00:00
TRACK 05 AUDIO
TITLE "I Can't Get Started"
PERFORMER "Isao Suzuki"
INDEX 00 05:34:71
FILE "05 - I Can't Get Started.wav" WAVE
INDEX 01 00:00:00
TRACK 06 AUDIO
TITLE "Low Flight"
PERFORMER "Isao Suzuki"
INDEX 00 04:59:71
FILE "06 - Low Flight.wav" WAVE
INDEX 01 00:00:00
 
Отчет CUETools
[CUETools log; Date: 22.11.2018 1:15:53; Version: 2.1.5]
[CTDB TOCID: OLCak_USWao2iK8B.UIME.Y9VHk-] found.
Track | CTDB Status
1 | (39/76) Accurately ripped
2 | (39/76) Accurately ripped
3 | (39/76) Accurately ripped
4 | (39/76) Accurately ripped
5 | (39/76) Accurately ripped
6 | (39/76) Accurately ripped
[AccurateRip ID: 00085379-002c9c8f-50081a06] found.
Track [ CRC | V2 ] Status
01 [6139793d|d79ad914] (04+25/29) Accurately ripped
02 [930a057f|d755499c] (05+25/30) Accurately ripped
03 [debbc7f4|cf200de9] (05+25/30) Accurately ripped
04 [59410c13|2bbc6f57] (05+25/30) Accurately ripped
05 [168932bb|c8f7f4d8] (05+25/30) Accurately ripped
06 [a193a50b|58e16560] (05+25/30) Accurately ripped
Track Peak [ CRC32 ] [W/O NULL] [ LOG ]
-- 100,0 [0048479D] [D69D4CD7]
01 100,0 [A50EBFB2] [5ED0B619] CRC32
02 99,4 [B2B8B839] [F5BF3DF1] CRC32
03 100,0 [2632C573] [33A8FA74] CRC32
04 99,9 [83056DB1] [63C46404] CRC32
05 92,3 [E71E951E] [4346F10E] CRC32
06 93,8 [7650955F] [6E305585] CRC32
 
Об альбоме (сборнике)
A fantastic electric album from one of the most unique bassists of the 70s – Blow Up is one of the most sough-after titles from the acclaimed Three Blind Mice catalog. Isao Suzuki's Blow-Up is virtuosity and class all rolled up into one. A great combination of upbeat blues and mellow grooves! The album was awarded "Jazz of Japan" Award and the Jazz Disc Award of "Swing Journal" in 1973.
"This adventurous set finds Suzuki and his band mates (drummer George Otsuka, pianist Kunihiko Sugano, and bassist Takashi Mizuhashi) working through three originals and three classic standards ("Everything Happens To Me", "Like It Is", and "I Can't Get Started"), merging classic hard bop principles with unusual touches (scratching cello and found percussion sweeps on "Aqua Marine"), all captured with the kind of supreme fidelity Three Blind Mice would later be heralded for. - Impex
“Few, if any, international audiophile jazz recordings have maintained the kind of deep and profound influence over techniques and even entire label repertoire as Three Blind Mice’s. The of-the-moment realism of Yoshihiko Kannari’s recordings and production aesthetic of producer and label head Takeshi “Tee” Fujii have been the benchmark to match. It is to their immense credit that Blow Up, Midnight Sugar and Misty have yet to be matched, even 40 years later. …
Isao Suzuki's Blow-Up is virtuosity and class all rolled up into one! A great combination of upbeat blues and mellow grooves, the album was awarded the 'Jazz of Japan Award' and the 'Jazz Disk Award' from Swing Journal in 1973.” – MusicDirect"
(Fusion) Isao Suzuki Trio/Quartet — Blow Up - 1973, FLAC (tracks), lossless - другое издание
Приватный:
Нет (DHT включён)
Размер:
207.29 Мб (217,362,152 байт) » файлов: 13
Участники:
0 раздают, 1 качают (1 участников всего)
Внешние участники:
16 раздают, 5 качают (21 участников всего) [ Обновить ]
Скорость:
283.40 Кб/c 0/c
For power users only: no seeders - write to support@pro-jazz.com. Для power user: нет сидеров - пишите на support@pro-jazz.com.
10:35
220
Нет комментариев. Ваш будет первым!