Поиск

(Fusion/ New Age) Chieli Minucci - Travels - 2008, FLAC (tracks+.cue), lossless

(Fusion/ New Age) Chieli Minucci - Travels - 2008, FLAC (tracks+.cue), lossless
Треклист:
Chieli Minucci
Travels
Жанр: Fusion/ New Age
Год издания: 2008
Страна: USA
Аудиокодек: FLAC (*.flac)
Тип рипа: tracks+.cue
Битрейт аудио: lossless
Продолжительность: 1:06:26
Источник (релизер): what.cd
Наличие сканов в содержимом раздачи: нет

01. Jewel In A Desert Sky (9:46)
02. Epiphany (2:35)
03. Journeys (17:08)
04. Smoldering (2:18)
05. Stoned (3:18)
06. It's All Right (3:05)
07. Bienvenidos (28:15)
 
Лог создания рипа
X Lossless Decoder version 20120226 (139.1)
XLD extraction logfile from 2012-03-29 15:54:26 -0700
Chieli Minucci / Travels
Used drive : MATSHITA DVD-R UJ-868 (revision KB19)
Ripper mode : XLD Secure Ripper
Disable audio cache : OK for the drive with a cache less than 1375KiB
Make use of C2 pointers : NO
Read offset correction : 102
Max retry count : 20
Gap status : Analyzed, Appended (except HTOA)
TOC of the extracted CD
Track | Start | Length | Start sector | End sector
---------------------------------------------------------
1 | 00:00:00 | 09:45:57 | 0 | 43931
2 | 09:45:57 | 02:35:16 | 43932 | 55572
3 | 12:20:73 | 17:07:68 | 55573 | 132665
4 | 29:28:66 | 02:18:29 | 132666 | 143044
5 | 31:47:20 | 03:18:15 | 143045 | 157909
6 | 35:05:35 | 03:05:30 | 157910 | 171814
7 | 38:10:65 | 28:14:51 | 171815 | 298915
AccurateRip Summary
Track 01 : NG
Track 02 : NG
Track 03 : NG
Track 04 : NG
Track 05 : NG
Track 06 : NG
Track 07 : NG
->0 track(s) accurately ripped, 7 track(s) not, 0 track(s) not found
All Tracks
Album gain : -4.56 dB
Peak : 0.979645
Statistics
Read error : 0
Jitter error (maybe fixed) : 0
Retry sector count : 0
Damaged sector count : 0
Track 01
Filename : /Users/DianaBurnell/Desktop/XLD Outputs/Chieli Minucci - 2008 - Travels [FLAC]/01 Jewel In A Desert Sky.flac
Pre-gap length : 00:02:00
Track gain : -4.95 dB
Peak : 0.976288
CRC32 hash (test run) : 6FBB16F8
CRC32 hash : 6FBB16F8
CRC32 hash (skip zero) : 626EB0FD
AccurateRip signature : E4834DC0
->Rip may not be accurate.
Statistics
Read error : 0
Jitter error (maybe fixed) : 0
Retry sector count : 0
Damaged sector count : 0
Track 02
Filename : /Users/DianaBurnell/Desktop/XLD Outputs/Chieli Minucci - 2008 - Travels [FLAC]/02 Epiphany.flac
Track gain : -3.85 dB
Peak : 0.979248
CRC32 hash (test run) : F42FE277
CRC32 hash : F42FE277
CRC32 hash (skip zero) : 5768483B
AccurateRip signature : 78C69D96
->Rip may not be accurate.
Statistics
Read error : 0
Jitter error (maybe fixed) : 0
Retry sector count : 0
Damaged sector count : 0
Track 03
Filename : /Users/DianaBurnell/Desktop/XLD Outputs/Chieli Minucci - 2008 - Travels [FLAC]/03 Journeys.flac
Track gain : -5.70 dB
Peak : 0.979523
CRC32 hash (test run) : F8EC7C4B
CRC32 hash : F8EC7C4B
CRC32 hash (skip zero) : B56F4166
AccurateRip signature : 6E95BDAE
->Rip may not be accurate.
Statistics
Read error : 0
Jitter error (maybe fixed) : 0
Retry sector count : 0
Damaged sector count : 0
Track 04
Filename : /Users/DianaBurnell/Desktop/XLD Outputs/Chieli Minucci - 2008 - Travels [FLAC]/04 Smoldering.flac
Track gain : -5.09 dB
Peak : 0.979645
CRC32 hash (test run) : 4AC7F08F
CRC32 hash : 4AC7F08F
CRC32 hash (skip zero) : E0C7CAF7
AccurateRip signature : D903B968
->Rip may not be accurate.
Statistics
Read error : 0
Jitter error (maybe fixed) : 0
Retry sector count : 0
Damaged sector count : 0
Track 05
Filename : /Users/DianaBurnell/Desktop/XLD Outputs/Chieli Minucci - 2008 - Travels [FLAC]/05 Stoned.flac
Track gain : -3.37 dB
Peak : 0.978180
CRC32 hash (test run) : C6AC1F2F
CRC32 hash : C6AC1F2F
CRC32 hash (skip zero) : 9523FC7B
AccurateRip signature : 0B38BB70
->Rip may not be accurate.
Statistics
Read error : 0
Jitter error (maybe fixed) : 0
Retry sector count : 0
Damaged sector count : 0
Track 06
Filename : /Users/DianaBurnell/Desktop/XLD Outputs/Chieli Minucci - 2008 - Travels [FLAC]/06 It's All Right.flac
Track gain : -3.96 dB
Peak : 0.979431
CRC32 hash (test run) : A63631CC
CRC32 hash : A63631CC
CRC32 hash (skip zero) : 8FEF6112
AccurateRip signature : AFF2E371
->Rip may not be accurate.
Statistics
Read error : 0
Jitter error (maybe fixed) : 0
Retry sector count : 0
Damaged sector count : 0
Track 07
Filename : /Users/DianaBurnell/Desktop/XLD Outputs/Chieli Minucci - 2008 - Travels [FLAC]/07 Bienvenidos.flac
Track gain : -2.21 dB
Peak : 0.978424
CRC32 hash (test run) : A25A1FEB
CRC32 hash : A25A1FEB
CRC32 hash (skip zero) : 4E5CD79B
AccurateRip signature : 6FC06E51
->Rip may not be accurate.
Statistics
Read error : 0
Jitter error (maybe fixed) : 0
Retry sector count : 0
Damaged sector count : 0
No errors occurred
End of status report
 
Содержание индексной карты (.CUE)
TITLE "Travels"
PERFORMER "Chieli Minucci"
REM GENRE "Jazz"
REM DATE "2008"
REM DISCID 5E0F9107
REM REPLAYGAIN_ALBUM_GAIN -4.56 dB
REM REPLAYGAIN_ALBUM_PEAK 0.979645
FILE "01 Jewel In A Desert Sky.flac" WAVE
TRACK 01 AUDIO
TITLE "Jewel In A Desert Sky"
REM REPLAYGAIN_TRACK_GAIN -4.95 dB
REM REPLAYGAIN_TRACK_PEAK 0.976288
INDEX 01 00:00:00
FILE "02 Epiphany.flac" WAVE
TRACK 02 AUDIO
TITLE "Epiphany"
REM REPLAYGAIN_TRACK_GAIN -3.85 dB
REM REPLAYGAIN_TRACK_PEAK 0.979248
INDEX 01 00:00:00
FILE "03 Journeys.flac" WAVE
TRACK 03 AUDIO
TITLE "Journeys"
REM REPLAYGAIN_TRACK_GAIN -5.70 dB
REM REPLAYGAIN_TRACK_PEAK 0.979523
INDEX 01 00:00:00
FILE "04 Smoldering.flac" WAVE
TRACK 04 AUDIO
TITLE "Smoldering"
REM REPLAYGAIN_TRACK_GAIN -5.09 dB
REM REPLAYGAIN_TRACK_PEAK 0.979645
INDEX 01 00:00:00
FILE "05 Stoned.flac" WAVE
TRACK 05 AUDIO
TITLE "Stoned"
REM REPLAYGAIN_TRACK_GAIN -3.37 dB
REM REPLAYGAIN_TRACK_PEAK 0.978180
INDEX 01 00:00:00
FILE "06 It's All Right.flac" WAVE
TRACK 06 AUDIO
TITLE "It's All Right"
REM REPLAYGAIN_TRACK_GAIN -3.96 dB
REM REPLAYGAIN_TRACK_PEAK 0.979431
INDEX 01 00:00:00
FILE "07 Bienvenidos.flac" WAVE
TRACK 07 AUDIO
TITLE "Bienvenidos"
REM REPLAYGAIN_TRACK_GAIN -2.21 dB
REM REPLAYGAIN_TRACK_PEAK 0.978424
INDEX 01 00:00:00
 
Лог проверки качества
AUDIOCHECKER v2.0 beta (build 457) - by Dester - opdester@freemail.hu
~~~~~~~~~~~~~~~~~~~~~~~~~~~~~~~~~~
-=== DO NOT EDIT THIS FILE! ===-
Path: ...\Chieli Minucci - Travels (2008)
1 -=- 01 Jewel In A Desert Sky.flac -=- CDDA (100%)
2 -=- 02 Epiphany.flac -=- CDDA (100%)
3 -=- 03 Journeys.flac -=- CDDA (100%)
4 -=- 04 Smoldering.flac -=- CDDA (100%)
5 -=- 05 Stoned.flac -=- CDDA (100%)
6 -=- 06 It's All Right.flac -=- CDDA (100%)
7 -=- 07 Bienvenidos.flac -=- CDDA (100%)
Summary 100,00% CDDA
124020020
По всем вопросам пишите личное сообщение пользователю M0p94ok.
04:02
254
Нет комментариев. Ваш будет первым!