Поиск

(Fusion, Modern Big Band) [CD] Maurizio Rolli & A.M.P. Big Band (featuring Mike Stern and Michael Manring) - Moodswings: A Tribute To Jaco Pastorius - 2001, FLAC (tracks+.cue), lossless

(Fusion, Modern Big Band) [CD] Maurizio Rolli & A.M.P. Big Band (featuring Mike Stern and Michael Manring) - Moodswings: A Tribute To Jaco Pastorius - 2001, FLAC (tracks+.cue), lossless
Треклист:
Maurizio Rolli & A.M.P. Big Band - Moodswings: A Tribute To Jaco Pastorius Жанр: Fusion, Modern Big Band
Носитель: CD
Год издания: 2001
Издатель (лейбл): Wide Sound
Номер по каталогу: WD109
Аудиокодек: FLAC (*.flac)
Тип рипа: tracks+.cue
Битрейт аудио: lossless
Продолжительность: 70:15
Источник (релизер): ruskaval
Наличие сканов в содержимом раздачи: да
Треклист:
01. Donna Lee jam (3:48)
02. Three views of a secret (6:54)
03. Teen Town (4:28)
04. Goodbye Pork pie hat (4:26)
05. Donna Lee (4:49)
06. Wing and a Prayer (7:40)
07. Havona (7:33)
08. Continuum (4:46)
09. Invitation (5:19)
10. Portrait of Lucy (8:00)
11. D-jaco (11:39)
12. extra track (0:53)
 
 
Об альбоме (сборнике)
This isn’t just another oblique or chops based attempt at paying homage to the late, great bassist Jaco Pastorius. Here, Italian acoustic-electric bassist, arranger Maurizio Rolli and his A.M.P. Big Band (along with some special guests), inject heartfelt imagery into the Pastorius songbook. With this release, Rolli focuses on Pastorius' compositional strengths.
Rolli’s vision provides additional proof to the validity of Pastorius’ melodic gifts. Rolli, drummer Nicola Angelucci and bassist Michael Manring open the set with a (jam) spin on Jaco’s now infamous rendition of Charlie Parker’s “Donna Lee.” While much of the excitement pertains to Diana Torto’s airy, wordless vocals on pieces such as Pastorius’ classic, “Three Views of a Secret.” In fact many of these arrangements, feature Ms. Torto’s breezy vocalise atop the Big Band’s textured arrangements. They perform a justifiably, peppery version of “Teen Town.” Whereas, guitarist Mike Stern leads the charge during a work he had composed and dedicated to Jaco subsequent to his untimely death, titled “Havona.” A gorgeous and irrefutably somber ballad, Stern’s guitar parts are counterbalanced by the horns section warmly stated passages and Rolli’s lyrically charged electric bass work. Otherwise, Stern also performs on “Djaco,” and “Wing and a Prayer.”
Rolli’s thoughtfully conceived interpretations of the late bassist legacy stands as a triumphant homage as opposed to reworking these pieces into verbatim type exercises. The musicians convey a deeply personalized reckoning of what Pastorius did and perhaps could have done via the wide-ranging possibilities of his musical persona. Regardless, this is a grand production, brimming with multicolored pastels and shrewdly actualized soloing endeavors. Recommended…
 
Состав
Maurizio Rolli - Electric Bass, Acoustic Bass, Arrangements, Backing vocals
Michael Manring - Electric Bass on "Donna Lee jam"
Mike Stern - Electric Guitar on "Havona", "Djaco" and "Wing and a Prayer"
A.M.P. Big Band:
Alfredo Impullitti - Conductor
Diana Torto - Vocals
Fabrizio Bosso - Trumpet and Flugelhorn
Samuele Garofoli, Giorgio Distante, Gianni Ferreri, Roberto Di Egidio - Trumpets
Massimo Morganti, Marcello Scarpetti, Davide Di Pasquale - Trombones
Giovanni Pantalone - Oboe
Marco Felicioni - Flute
Roberto Torto - Clarinet and Bass Clarinet on "Wing and a Prayer" & "Teen Town"
Gianluca Esposito - Soprano Sax
Achille Succi - Alto Sax and Bass Clarinet
Marco Collazzoni - Alto Sax
Max Ionata - Tenor and Sop. Saxes
Piero Delle Monache - Tenor Sax
Massimo Mucci - Baritone Sax
Angelo Trabucco, Angelo Canelli (on "Good bye pork pie hat" and "Wing and a Prayer"), Claudio Filippini (on "Donna Lee") - Piano
Giancarlo Alfani - Guitar
Nicola Angelucci, Paolo Corsi (on "Havona", "Djaco" and "Wing and a Prayer"), Danny Manzo (on "Invitation " and "Teen Town") - Drums
Giovanni Imparato - Percussions and Backing vocals
Diana Torto, Simona Capozucco, Lucia Di Gregorio, Maurizio Rolli, Enrico Melozzi, Angelo Trabucco, Marcello Manuli, Giovanni Imparato - Backing vocals
Diana Torto, Maurizio Rolli, Paola Giuliani - Spoken
Augusto D'Incecco, Patrick Murray, Piergiorgio Troilo, Gaia Luzzi, Piero Montebello, Morena Di Gennaro - Violins
Giovanni Ciaffarini, Hazel Godard - Violas
Enrico Melozzi - Cello

 
Лог создания рипа
Exact Audio Copy V1.0 beta 3 from 29. August 2011
EAC extraction logfile from 6. June 2014, 20:07
Maurizio Rolli & A.M.P. Big Band / Moodswings
Used drive : HL-DT-STDVD-ROM GDR8161B Adapter: 4 ID: 1
Read mode : Secure
Utilize accurate stream : Yes
Defeat audio cache : Yes
Make use of C2 pointers : No
Read offset correction : 102
Overread into Lead-In and Lead-Out : No
Fill up missing offset samples with silence : Yes
Delete leading and trailing silent blocks : No
Null samples used in CRC calculations : Yes
Used interface : Native Win32 interface for Win NT & 2000
Gap handling : Appended to previous track
Used output format : User Defined Encoder
Selected bitrate : 896 kBit/s
Quality : High
Add ID3 tag : No
Command line compressor : C:\Program Files (x86)\Exact Audio Copy\Flac\flac.exe
Additional command line options : -8 -V -T "ARTIST=%artist%" -T "TITLE=%title%" -T "ALBUM=%albumtitle%" -T "DATE=%year%" -T "TRACKNUMBER=%tracknr%" -T "TOTALTRACKS=%numtracks%" -T "GENRE=%genre%" -T "ALBUMARTIST=%albumartist%" -T "ALBUM ARTIST=%albumartist%" -T "COMMENT=EAC Secure Mode, Test & Copy, AccurateRip, FLAC -8" %source%
TOC of the extracted CD
Track | Start | Length | Start sector | End sector
---------------------------------------------------------
1 | 0:00.00 | 3:47.57 | 0 | 17081
2 | 3:47.57 | 6:53.64 | 17082 | 48120
3 | 10:41.46 | 4:27.50 | 48121 | 68195
4 | 15:09.21 | 4:26.35 | 68196 | 88180
5 | 19:35.56 | 4:48.61 | 88181 | 109841
6 | 24:24.42 | 7:40.37 | 109842 | 144378
7 | 32:05.04 | 7:32.42 | 144379 | 178320
8 | 39:37.46 | 4:46.35 | 178321 | 199805
9 | 44:24.06 | 5:18.40 | 199806 | 223695
10 | 49:42.46 | 8:00.22 | 223696 | 259717
11 | 57:42.68 | 11:39.35 | 259718 | 312177
12 | 69:22.28 | 0:52.40 | 312178 | 316117
Track 1
Filename C:\Users\pieropicco\Documents\Rolli_moodswings\01 - Donna Lee jam.wav
Pre-gap length 0:00:02.00
Peak level 100.0 %
Extraction speed 4.1 X
Track quality 99.9 %
Test CRC 8020CC4B
Copy CRC 8020CC4B
Track not present in AccurateRip database
Copy OK
Track 2
Filename C:\Users\pieropicco\Documents\Rolli_moodswings\02 - Three views of a secret.wav
Peak level 100.0 %
Extraction speed 5.5 X
Track quality 100.0 %
Test CRC 5B72DF29
Copy CRC 5B72DF29
Track not present in AccurateRip database
Copy OK
Track 3
Filename C:\Users\pieropicco\Documents\Rolli_moodswings\03 - Teen Town.wav
Peak level 100.0 %
Extraction speed 5.8 X
Track quality 100.0 %
Test CRC 0B23A21C
Copy CRC 0B23A21C
Track not present in AccurateRip database
Copy OK
Track 4
Filename C:\Users\pieropicco\Documents\Rolli_moodswings\04 - Goodbye Pork pie hat.wav
Peak level 100.0 %
Extraction speed 6.1 X
Track quality 100.0 %
Test CRC CF607DD8
Copy CRC CF607DD8
Track not present in AccurateRip database
Copy OK
Track 5
Filename C:\Users\pieropicco\Documents\Rolli_moodswings\05 - Donna Lee.wav
Peak level 100.0 %
Extraction speed 5.9 X
Track quality 99.9 %
Test CRC 7655B70B
Copy CRC 7655B70B
Track not present in AccurateRip database
Copy OK
Track 6
Filename C:\Users\pieropicco\Documents\Rolli_moodswings\06 - Wing and a Prayer.wav
Peak level 100.0 %
Extraction speed 6.7 X
Track quality 99.9 %
Test CRC 540470C9
Copy CRC 540470C9
Track not present in AccurateRip database
Copy OK
Track 7
Filename C:\Users\pieropicco\Documents\Rolli_moodswings\07 - Havona.wav
Peak level 100.0 %
Extraction speed 7.7 X
Track quality 100.0 %
Test CRC B3500176
Copy CRC B3500176
Track not present in AccurateRip database
Copy OK
Track 8
Filename C:\Users\pieropicco\Documents\Rolli_moodswings\08 - Continuum.wav
Peak level 100.0 %
Extraction speed 6.9 X
Track quality 99.9 %
Test CRC F9FEF700
Copy CRC F9FEF700
Track not present in AccurateRip database
Copy OK
Track 9
Filename C:\Users\pieropicco\Documents\Rolli_moodswings\09 - Invitation.wav
Peak level 100.0 %
Extraction speed 7.8 X
Track quality 100.0 %
Test CRC 593F8478
Copy CRC 593F8478
Track not present in AccurateRip database
Copy OK
Track 10
Filename C:\Users\pieropicco\Documents\Rolli_moodswings\10 - Portrait of Lucy.wav
Peak level 100.0 %
Extraction speed 8.4 X
Track quality 100.0 %
Test CRC 8BBC6093
Copy CRC 8BBC6093
Track not present in AccurateRip database
Copy OK
Track 11
Filename C:\Users\pieropicco\Documents\Rolli_moodswings\11 - D-jaco.wav
Peak level 100.0 %
Extraction speed 9.2 X
Track quality 100.0 %
Test CRC FAABABA4
Copy CRC FAABABA4
Track not present in AccurateRip database
Copy OK
Track 12
Filename C:\Users\pieropicco\Documents\Rolli_moodswings\12 - extra track.wav
Peak level 67.7 %
Extraction speed 5.9 X
Track quality 100.0 %
Test CRC DC1DD870
Copy CRC DC1DD870
Track not present in AccurateRip database
Copy OK
None of the tracks are present in the AccurateRip database
No errors occurred
End of status report
==== Log checksum 6B5F63552D88EDA90AD6450E13F24E0C00688012C68726534C5C899482202311 ====
 
Содержание индексной карты (.CUE)
REM GENRE Jazz
REM DATE 2001
REM DISCID BB10760C
REM COMMENT "ExactAudioCopy v1.0b3"
PERFORMER "Maurizio Rolli & A.M.P. Big Band"
TITLE "Moodswings"
FILE "01 - Donna Lee jam.wav" WAVE
TRACK 01 AUDIO
TITLE "Donna Lee jam"
PERFORMER "Maurizio Rolli & A.M.P. Big Band"
FLAGS DCP
INDEX 01 00:00:00
FILE "02 - Three views of a secret.wav" WAVE
TRACK 02 AUDIO
TITLE "Three views of a secret"
PERFORMER "Maurizio Rolli & A.M.P. Big Band"
FLAGS DCP
INDEX 01 00:00:00
FILE "03 - Teen Town.wav" WAVE
TRACK 03 AUDIO
TITLE "Teen Town"
PERFORMER "Maurizio Rolli & A.M.P. Big Band"
FLAGS DCP
INDEX 01 00:00:00
FILE "04 - Goodbye Pork pie hat.wav" WAVE
TRACK 04 AUDIO
TITLE "Goodbye Pork pie hat"
PERFORMER "Maurizio Rolli & A.M.P. Big Band"
FLAGS DCP
INDEX 01 00:00:00
FILE "05 - Donna Lee.wav" WAVE
TRACK 05 AUDIO
TITLE "Donna Lee"
PERFORMER "Maurizio Rolli & A.M.P. Big Band"
FLAGS DCP
INDEX 01 00:00:00
FILE "06 - Wing and a Prayer.wav" WAVE
TRACK 06 AUDIO
TITLE "Wing and a Prayer"
PERFORMER "Maurizio Rolli & A.M.P. Big Band"
FLAGS DCP
INDEX 01 00:00:00
FILE "07 - Havona.wav" WAVE
TRACK 07 AUDIO
TITLE "Havona"
PERFORMER "Maurizio Rolli & A.M.P. Big Band"
FLAGS DCP
INDEX 01 00:00:00
FILE "08 - Continuum.wav" WAVE
TRACK 08 AUDIO
TITLE "Continuum"
PERFORMER "Maurizio Rolli & A.M.P. Big Band"
FLAGS DCP
INDEX 01 00:00:00
FILE "09 - Invitation.wav" WAVE
TRACK 09 AUDIO
TITLE "Invitation"
PERFORMER "Maurizio Rolli & A.M.P. Big Band"
FLAGS DCP
INDEX 01 00:00:00
FILE "10 - Portrait of Lucy.wav" WAVE
TRACK 10 AUDIO
TITLE "Portrait of Lucy"
PERFORMER "Maurizio Rolli & A.M.P. Big Band"
FLAGS DCP
INDEX 01 00:00:00
FILE "11 - D-jaco.wav" WAVE
TRACK 11 AUDIO
TITLE "D-jaco"
PERFORMER "Maurizio Rolli & A.M.P. Big Band"
FLAGS DCP
INDEX 01 00:00:00
FILE "12 - extra track.wav" WAVE
TRACK 12 AUDIO
TITLE "extra track"
PERFORMER "Maurizio Rolli & A.M.P. Big Band"
FLAGS DCP
INDEX 01 00:00:00
Приватный:
Нет (DHT включён)
Размер:
638.64 Мб (669,662,876 байт) » файлов: 33
Участники:
0 раздают, 2 качают (2 участников всего)
Внешние участники:
5 раздают, 2 качают (7 участников всего) [ Обновить ]
Скорость:
417.07 Кб/c 0/c
For power users only: no seeders - write to support@pro-jazz.com. Для power user: нет сидеров - пишите на support@pro-jazz.com.
06:53
104
Нет комментариев. Ваш будет первым!