Поиск

(Fusion, Latin Jazz) Carles Benavent - Quartet - 2009, FLAC (tracks+.cue), lossless

(Fusion, Latin Jazz) Carles Benavent - Quartet - 2009, FLAC (tracks+.cue), lossless
Треклист:
Carles Benavent / Quartet Жанр: Fusion, Latin Jazz
Год издания диска: 2009
Издатель (лейбл): Bebyne Records
Страна: Spain
Аудиокодек: FLAC (*.flac)
Тип рипа: tracks+.cue
Битрейт аудио: lossless
Продолжительность: 51:45
Источник (релизер): вакса (tiburon / jlgt)
Наличие сканов в содержимом раздачи: да
Треклист:
01. Por dioss 3:45
02. La luz 5:15
03. Ai pare 6:22
04. Sevillona 3:49
05. Nipona 6:05
06. Aire 5:33
07. Tomili maguro 3:37
08. Olй blues 4:12
09. Renacer 3:31
10. El tiempo 3:31
11. Okinawa (bonus track) 5:00
Quartet
Порясающий альбом, не пропустите!
Оригинальный релизёр jlgt просил не выкладывать рип без его согласия, но, поскольку альбом выложен tiburon-ом на Ваксе, думаю, таковое согласие получено.
 
Лог создания рипа
Exact Audio Copy V0.99 prebeta 5 from 4. May 2009
EAC extraction logfile from 24. May 2010, 12:18
Carles Benavent / Quartet
Used drive : HL-DT-STDVD-ROM GDR8164B Adapter: 0 ID: 1
Read mode : Secure
Utilize accurate stream : Yes
Defeat audio cache : Yes
Make use of C2 pointers : No
Read offset correction : 102
Overread into Lead-In and Lead-Out : No
Fill up missing offset samples with silence : Yes
Delete leading and trailing silent blocks : No
Null samples used in CRC calculations : Yes
Used interface : Native Win32 interface for Win NT & 2000
Gap handling : Appended to previous track
Used output format : User Defined Encoder
Selected bitrate : 128 kBit/s
Quality : High
Add ID3 tag : No
Command line compressor : C:\Archivos de programa\Exact Audio Copy\Flac\flac.exe
Additional command line options : -8 -V -T "artist=%a" -T "title=%t" -T "album=%g" -T "date=%y" -T "tracknumber=%n" -T "genre=%m" %s
TOC of the extracted CD
Track | Start | Length | Start sector | End sector
---------------------------------------------------------
1 | 0:00.00 | 3:42.72 | 0 | 16721
2 | 3:42.72 | 5:12.57 | 16722 | 40178
3 | 8:55.54 | 6:18.27 | 40179 | 68555
4 | 15:14.06 | 3:45.11 | 68556 | 85441
5 | 18:59.17 | 6:03.15 | 85442 | 112681
6 | 25:02.32 | 5:31.09 | 112682 | 137515
7 | 30:33.41 | 3:34.08 | 137516 | 153573
8 | 34:07.49 | 4:10.13 | 153574 | 172336
9 | 38:17.62 | 4:34.03 | 172337 | 192889
10 | 42:51.65 | 3:29.33 | 192890 | 208597
11 | 46:21.23 | 4:59.48 | 208598 | 231070
Track 1
Filename E:\EAC_RIP_FLAC\01 - Por Diosss.wav
Pre-gap length 0:00:02.00
Peak level 99.2 %
Track quality 100.0 %
Test CRC 3A26A1AC
Copy CRC 3A26A1AC
Track not present in AccurateRip database
Copy OK
Track 2
Filename E:\EAC_RIP_FLAC\02 - La Luz.wav
Peak level 97.9 %
Track quality 100.0 %
Test CRC FCE97B58
Copy CRC FCE97B58
Track not present in AccurateRip database
Copy OK
Track 3
Filename E:\EAC_RIP_FLAC\03 - Ai Pare.wav
Pre-gap length 0:00:02.45
Peak level 97.8 %
Track quality 100.0 %
Test CRC 0B30B803
Copy CRC 0B30B803
Track not present in AccurateRip database
Copy OK
Track 4
Filename E:\EAC_RIP_FLAC\04 - Sevillona.wav
Peak level 98.4 %
Track quality 99.9 %
Test CRC 6D77713F
Copy CRC 6D77713F
Track not present in AccurateRip database
Copy OK
Track 5
Filename E:\EAC_RIP_FLAC\05 - Nipona.wav
Pre-gap length 0:00:01.58
Peak level 98.0 %
Track quality 100.0 %
Test CRC 06E2FE88
Copy CRC 06E2FE88
Track not present in AccurateRip database
Copy OK
Track 6
Filename E:\EAC_RIP_FLAC\06 - Aire.wav
Peak level 99.6 %
Track quality 100.0 %
Test CRC 9F5C1CB5
Copy CRC 9F5C1CB5
Track not present in AccurateRip database
Copy OK
Track 7
Filename E:\EAC_RIP_FLAC\07 - Tomili Maguru.wav
Peak level 96.8 %
Track quality 100.0 %
Test CRC 392ECD25
Copy CRC 392ECD25
Track not present in AccurateRip database
Copy OK
Track 8
Filename E:\EAC_RIP_FLAC\08 - Ole Blues.wav
Pre-gap length 0:00:01.18
Peak level 98.0 %
Track quality 100.0 %
Test CRC F5DAD081
Copy CRC F5DAD081
Track not present in AccurateRip database
Copy OK
Track 9
Filename E:\EAC_RIP_FLAC\09 - Renacer.wav
Peak level 97.9 %
Track quality 100.0 %
Test CRC 9DC1DAE4
Copy CRC 9DC1DAE4
Track not present in AccurateRip database
Copy OK
Track 10
Filename E:\EAC_RIP_FLAC\10 - El Tiempo.wav
Peak level 97.9 %
Track quality 100.0 %
Test CRC B83C9372
Copy CRC B83C9372
Track not present in AccurateRip database
Copy OK
Track 11
Filename E:\EAC_RIP_FLAC\11 - Okinawa.wav
Pre-gap length 0:00:03.77
Peak level 97.2 %
Track quality 100.0 %
Test CRC 2961B1E7
Copy CRC 2961B1E7
Track not present in AccurateRip database
Copy OK
None of the tracks are present in the AccurateRip database
No errors occurred
End of status report
 
Содержание индексной карты (.CUE)
REM GENRE Jazz
REM DATE 2009
REM DISCID 950C080B
REM COMMENT "ExactAudioCopy v0.99pb5"
PERFORMER "Carles Benavent"
TITLE "Quartet"
FILE "01 - Por Diosss.wav" WAVE
TRACK 01 AUDIO
TITLE "Por Diosss"
PERFORMER "Carles Benavent"
INDEX 01 00:00:00
FILE "02 - La Luz.wav" WAVE
TRACK 02 AUDIO
TITLE "La Luz"
PERFORMER "Carles Benavent"
INDEX 01 00:00:00
TRACK 03 AUDIO
TITLE "Ai Pare"
PERFORMER "Carles Benavent"
INDEX 00 05:10:23
FILE "03 - Ai Pare.wav" WAVE
INDEX 01 00:00:00
FILE "04 - Sevillona.wav" WAVE
TRACK 04 AUDIO
TITLE "Sevillona"
PERFORMER "Carles Benavent"
INDEX 01 00:00:00
TRACK 05 AUDIO
TITLE "Nipona"
PERFORMER "Carles Benavent"
INDEX 00 03:43:42
FILE "05 - Nipona.wav" WAVE
INDEX 01 00:00:00
FILE "06 - Aire.wav" WAVE
TRACK 06 AUDIO
TITLE "Aire"
PERFORMER "Carles Benavent"
INDEX 01 00:00:00
FILE "07 - Tomili Maguru.wav" WAVE
TRACK 07 AUDIO
TITLE "Tomili Maguru"
PERFORMER "Carles Benavent"
INDEX 01 00:00:00
TRACK 08 AUDIO
TITLE "Ole Blues"
PERFORMER "Carles Benavent"
INDEX 00 03:32:69
FILE "08 - Ole Blues.wav" WAVE
INDEX 01 00:00:00
FILE "09 - Renacer.wav" WAVE
TRACK 09 AUDIO
TITLE "Renacer"
PERFORMER "Carles Benavent"
INDEX 01 00:00:00
FILE "10 - El Tiempo.wav" WAVE
TRACK 10 AUDIO
TITLE "El Tiempo"
PERFORMER "Carles Benavent"
INDEX 01 00:00:00
TRACK 11 AUDIO
TITLE "Okinawa"
PERFORMER "Carles Benavent"
INDEX 00 03:25:50
FILE "11 - Okinawa.wav" WAVE
INDEX 01 00:00:00
 
Лог проверки качества
AUDIOCHECKER v2.0 beta (build 457) - by Dester - opdester@freemail.hu
~~~~~~~~~~~~~~~~~~~~~~~~~~~~~~~~~~
-=== DO NOT EDIT THIS FILE! ===-
Path: ...\Carles Benavent - Quartet (2009) [FLAC]
01 -=- 01 - Por Diosss.flac -=- CDDA (100%)
02 -=- 02 - La Luz.flac -=- CDDA (100%)
03 -=- 03 - Ai Pare.flac -=- CDDA (99%)
04 -=- 04 - Sevillona.flac -=- CDDA (100%)
05 -=- 05 - Nipona.flac -=- CDDA (100%)
06 -=- 06 - Aire.flac -=- CDDA (100%)
07 -=- 07 - Tomili Maguru.flac -=- CDDA (100%)
08 -=- 08 - Ole Blues.flac -=- CDDA (100%)
09 -=- 09 - Renacer.flac -=- CDDA (99%)
10 -=- 10 - El Tiempo.flac -=- CDDA (100%)
11 -=- 11 - Okinawa.flac -=- ERROR
Summary 99,80% CDDA
218279652
 
Об исполнителе (группе)
Carles Benavent is one of the privileged geniuses that is sought out by a long list of artists such as Chick Corea, Miles Davis and Paco de Lucia. Quartet shows the importance for the group Benavent is on this new project, consisting entirely of new songs written for the quartet. The band sounds compact and balanced, with spaces for the individual brilliance of each of the four virtuosos, which are the perfect mattress to the brightness of Benavent.
 
Об альбоме (сборнике)
Bebyne Records presents “Quartet”, the new album of the internationally acclaimed bass player Carles Benavent. Featuring Jordi Bonell (guitar), Ravid Goldschmidt (hang) and Roger Blavia (drums and percussion), and collaborations from great artists such as Chicuelo, Jorge Pardo and Tino Di Geraldo.
Benavent’s new record represents a new period in his long artistic career, with a new band and fresh and powerful new songs. His amazing virtuosity and control of the bass, is mixed with the Mediterranean flavor and the sound of Flamenco, all together rounded by the hang.
“Quartet” shows the importance of the band in this new Project, with a compact sound of the rhythm section, very well balanced between improvisation and groove sections. Each song is based on a flamenco rhythm style (“palos”), but with the freedom of jazz, the strength of rock, and world music influences.
For the unconditional fans of Benavent, the album includes a bonus track featuring Jorge Pardo, in a wonderful duo piece.
 
Состав
Carles Benavent - bass
Jordi Bonell - electric guitar
Ravid Goldschmidt - Hang
Roger Blаvia - drums, percussions
Special Guest:
Juan Gуmez "Chicuelo" - claps
Isaac "El Rubio" - claps
Tino di Geraldo - drums & tablas
Jorge Pardo - soprano sax
Angie Benavent - Chorus
Приятных впечатлений!
00:07
378
Нет комментариев. Ваш будет первым!