Поиск

(Fusion Jazz, World) [CD] Fahir Atakoglu (with Alain Caron & Horacio “El Negro" Hernandez) - Live at Umbria Jazz - 2016, FLAC (tracks+.cue), lossless

(Fusion Jazz, World) [CD] Fahir Atakoglu (with Alain Caron & Horacio “El Negro" Hernandez) - Live at Umbria Jazz - 2016, FLAC (tracks+.cue), lossless
Треклист:
LIVE AT UMBRIA JAZZ
FAHIR ATAKOĞLU
Жанр: Fusion Jazz, World
Страна-производитель диска: USA
Год издания: 2016
Издатель (лейбл): Far & Here
Страна исполнителя: Turkey/Canada/Cuba
Аудиокодек: FLAC (*.flac)
Тип рипа: tracks+.cue
Битрейт аудио: lossless
Продолжительность: 74:40
Источник (релизер): спасибо fatimazar
Наличие сканов: нет
Треклист:
01 Beyoglu
02 Sync-op
03 Aheste
04 Faces
05 Gypsy In Me
06 Connection
07 Black Sea
08 Ess
09 Trapped
10 Saturday
 
Лог создания рипа
Exact Audio Copy V1.1 from 23. June 2015
EAC extraction logfile from 9. March 2016, 16:07
Fahir Atakoglu / Live at Umbria Jazz
Used drive : TSSTcorpCDDVDW SE-218CB Adapter: 1 ID: 0
Read mode : Secure
Utilize accurate stream : Yes
Defeat audio cache : Yes
Make use of C2 pointers : No
Read offset correction : 6
Overread into Lead-In and Lead-Out : No
Fill up missing offset samples with silence : Yes
Delete leading and trailing silent blocks : No
Null samples used in CRC calculations : Yes
Used interface : Native Win32 interface for Win NT & 2000
Gap handling : Appended to previous track
Used output format : User Defined Encoder
Selected bitrate : 1024 kBit/s
Quality : High
Add ID3 tag : No
Command line compressor : C:\Program Files (x86)\Exact Audio Copy\Flac\flac.exe
Additional command line options : -8 -V -T "ARTIST=%artist%" -T "TITLE=%title%" -T "ALBUM=%albumtitle%" -T "DATE=%year%" -T "TRACKNUMBER=%tracknr%" -T "GENRE=%genre%" -T "PERFORMER=%albuminterpret%" -T "COMPOSER=%composer%" %haslyrics%--tag-from-file=LYRICS="%lyricsfile%"%haslyrics% -T "ALBUMARTIST=%albumartist%" -T "DISCNUMBER=%cdnumber%" -T "TOTALDISCS=%totalcds%" -T "TOTALTRACKS=%numtracks%" -T "COMMENT=%comment%" %source% -o %dest%
TOC of the extracted CD
Track | Start | Length | Start sector | End sector
---------------------------------------------------------
1 | 0:00.00 | 8:39.01 | 0 | 38925
2 | 8:39.01 | 7:50.72 | 38926 | 74247
3 | 16:29.73 | 8:58.70 | 74248 | 114667
4 | 25:28.68 | 6:45.48 | 114668 | 145090
5 | 32:14.41 | 5:18.49 | 145091 | 168989
6 | 37:33.15 | 7:47.69 | 168990 | 204083
7 | 45:21.09 | 7:07.38 | 204084 | 236146
8 | 52:28.47 | 7:23.14 | 236147 | 269385
9 | 59:51.61 | 6:22.45 | 269386 | 298080
10 | 66:14.31 | 8:34.71 | 298081 | 336701
Track 1
Filename C:\WHAT\Fahir Atakoglu - Live At Umbria Jazz (2015) [FLAC]\01 Beyoglu.wav
Pre-gap length 0:00:02.00
Peak level 99.8 %
Extraction speed 3.0 X
Track quality 100.0 %
Test CRC 7F1C744B
Copy CRC 7F1C744B
Accurately ripped (confidence 1) [109A18E5] (AR v2)
Copy OK
Track 2
Filename C:\WHAT\Fahir Atakoglu - Live At Umbria Jazz (2015) [FLAC]\02 Sync-op.wav
Pre-gap length 0:00:01.00
Peak level 99.8 %
Extraction speed 3.5 X
Track quality 100.0 %
Test CRC DB80352A
Copy CRC DB80352A
Accurately ripped (confidence 1) [A58E4EBF] (AR v2)
Copy OK
Track 3
Filename C:\WHAT\Fahir Atakoglu - Live At Umbria Jazz (2015) [FLAC]\03 Aheste.wav
Pre-gap length 0:00:01.00
Peak level 99.8 %
Extraction speed 4.0 X
Track quality 100.0 %
Test CRC C0845C7A
Copy CRC C0845C7A
Accurately ripped (confidence 1) [625D17A3] (AR v2)
Copy OK
Track 4
Filename C:\WHAT\Fahir Atakoglu - Live At Umbria Jazz (2015) [FLAC]\04 Faces.wav
Pre-gap length 0:00:01.00
Peak level 99.8 %
Extraction speed 4.2 X
Track quality 100.0 %
Test CRC 8DE02994
Copy CRC 8DE02994
Accurately ripped (confidence 1) [0A868D09] (AR v2)
Copy OK
Track 5
Filename C:\WHAT\Fahir Atakoglu - Live At Umbria Jazz (2015) [FLAC]\05 Gypsy in me.wav
Pre-gap length 0:00:01.00
Peak level 99.8 %
Extraction speed 0.3 X
Track quality 99.9 %
Test CRC 2AC580BC
Copy CRC 2AC580BC
Accurately ripped (confidence 1) [35156331] (AR v2)
Copy OK
Track 6
Filename C:\WHAT\Fahir Atakoglu - Live At Umbria Jazz (2015) [FLAC]\06 Connection.wav
Pre-gap length 0:00:01.00
Peak level 99.8 %
Extraction speed 4.6 X
Track quality 100.0 %
Test CRC 493180CB
Copy CRC 493180CB
Accurately ripped (confidence 1) [9E444BF9] (AR v2)
Copy OK
Track 7
Filename C:\WHAT\Fahir Atakoglu - Live At Umbria Jazz (2015) [FLAC]\07 Black Sea.wav
Pre-gap length 0:00:01.00
Peak level 99.8 %
Extraction speed 4.8 X
Track quality 100.0 %
Test CRC EDD9A51C
Copy CRC EDD9A51C
Accurately ripped (confidence 1) [4656AED0] (AR v2)
Copy OK
Track 8
Filename C:\WHAT\Fahir Atakoglu - Live At Umbria Jazz (2015) [FLAC]\08 Ess.wav
Pre-gap length 0:00:00.98
Peak level 99.8 %
Extraction speed 4.5 X
Track quality 99.9 %
Test CRC 00073BA3
Copy CRC 00073BA3
Accurately ripped (confidence 1) [3E0A8803] (AR v2)
Copy OK
Track 9
Filename C:\WHAT\Fahir Atakoglu - Live At Umbria Jazz (2015) [FLAC]\09 Trapped.wav
Pre-gap length 0:00:01.00
Peak level 99.8 %
Extraction speed 5.2 X
Track quality 100.0 %
Test CRC 1CC13EFE
Copy CRC 1CC13EFE
Accurately ripped (confidence 1) [980AF591] (AR v2)
Copy OK
Track 10
Filename C:\WHAT\Fahir Atakoglu - Live At Umbria Jazz (2015) [FLAC]\10 Saturday.wav
Pre-gap length 0:00:01.00
Peak level 99.8 %
Extraction speed 4.9 X
Track quality 99.9 %
Test CRC 9B759F41
Copy CRC 9B759F41
Accurately ripped (confidence 1) [2A8DC90F] (AR v2)
Copy OK
All tracks accurately ripped
No errors occurred
End of status report
---- CUETools DB Plugin V2.1.6
[CTDB TOCID: R9LxGdSLGEXdWswoEQVTBYayNJE-] database access error: There is an error in XML document (1, 2).
==== Log checksum FC4370B8350699804D9FEFF11BDF2B5872EEB285A659FEE2B75E1D558A638982 ====
 
Содержание индексной карты (.CUE)
REM GENRE Jazz
REM DATE 2015
REM DISCID 8B11890A
REM COMMENT "ExactAudioCopy v1.1"
PERFORMER "Fahir Atakoglu"
TITLE "Live at Umbria Jazz"
FILE "01 Beyoglu.wav" WAVE
TRACK 01 AUDIO
TITLE "Beyoglu"
PERFORMER "Fahir Atakoglu"
ISRC QM9A91540111
INDEX 01 00:00:00
TRACK 02 AUDIO
TITLE "Sync-op"
PERFORMER "Fahir Atakoglu"
ISRC QM9A91540112
INDEX 00 08:38:01
FILE "02 Sync-op.wav" WAVE
INDEX 01 00:00:00
TRACK 03 AUDIO
TITLE "Aheste"
PERFORMER "Fahir Atakoglu"
ISRC QM9A91540113
INDEX 00 07:49:72
FILE "03 Aheste.wav" WAVE
INDEX 01 00:00:00
TRACK 04 AUDIO
TITLE "Faces"
PERFORMER "Fahir Atakoglu"
ISRC QM9A91540114
INDEX 00 08:57:70
FILE "04 Faces.wav" WAVE
INDEX 01 00:00:00
TRACK 05 AUDIO
TITLE "Gypsy in me"
PERFORMER "Fahir Atakoglu"
ISRC QM9A91540115
INDEX 00 06:44:48
FILE "05 Gypsy in me.wav" WAVE
INDEX 01 00:00:00
TRACK 06 AUDIO
TITLE "Connection"
PERFORMER "Fahir Atakoglu"
ISRC QM9A91540116
INDEX 00 05:17:49
FILE "06 Connection.wav" WAVE
INDEX 01 00:00:00
TRACK 07 AUDIO
TITLE "Black Sea"
PERFORMER "Fahir Atakoglu"
ISRC QM9A91540117
INDEX 00 07:46:69
FILE "07 Black Sea.wav" WAVE
INDEX 01 00:00:00
TRACK 08 AUDIO
TITLE "Ess"
PERFORMER "Fahir Atakoglu"
ISRC QM9A91540118
INDEX 00 07:06:39
FILE "08 Ess.wav" WAVE
INDEX 01 00:00:00
TRACK 09 AUDIO
TITLE "Trapped"
PERFORMER "Fahir Atakoglu"
ISRC QM9A91540119
INDEX 00 07:22:14
FILE "09 Trapped.wav" WAVE
INDEX 01 00:00:00
TRACK 10 AUDIO
TITLE "Saturday"
PERFORMER "Fahir Atakoglu"
ISRC QM9A91540120
INDEX 00 06:21:45
FILE "10 Saturday.wav" WAVE
INDEX 01 00:00:00
 
Об альбоме
The globalization of jazz has not only garnered an expansive audience for the music, but has also brought worldwide artists into the genre, bringing with them unique cultural distinctions and dimensions. The Italian city of Umbria is home to the esteemed Teatro Morlachi, where in 2010, pianist Fahir Atakoglu recorded Live At Umbria Jazz an adrenaline charged set of precision and emotion. Turkish born Atakoglu is joined by Canadian electric bass virtuoso Alain Caron, and Cuban master drummer Horacio "El Negro" Hernandez, to make this a truly international affair.
The combined experience and recording output of these three musicians is extensive and impressive, which naturally raises the level of expectation of the concert. Atakoglu composed all the material, which goes beyond his Turkish roots into an eclectic combination of influences and nuances working in odd meters and time signatures. Hernandez, having accompanied Atakoglu since 2005, knows how to drive the pieces with his excellent command of tempo, and Caron enhances the compositions with classical chanson and modern fusion.
"Beyoglu," named after a section of Istanbul, sets the tone for what is ahead as bass and piano lightly intertwine before rising to a vigorous pinnacle, into a startling finish. The blistering pace is continued through "Sync-Op," where the trio blurs past forms and measures into the stratosphere. A bluesy funk groove, anchored by Caron, is brought forth on "Aheste," and the mid-eastern current is highlighted on "Faces," where Atakoglu does some soft vocal intoning. "Gypsy In Me," inspired by the Romany gypsies, is bebop piano in the fast lane, and the introspective "Connection," with its mysterious cadence, is a masterful unification of two worlds, as viewed through music. It's back to the exhilaration on "Black Sea," a tribute to Turkey's north coast, which leads into "ESS," a lively rhythmic excursion into velocity, both tracks presenting why Hernandez is the drummer of choice, when the heat is on.
Acknowledged for an engaging and aggressive piano attack that is emphasized on "Trapped," Atakoglu displays sheer technical rapidity combined with artistic finesse for a notable interpretation. After such impassioned exchanges, it became obvious that this trio was not going to go out without swinging, and the closing tune "Saturday," is an incorporation of exotic melody forged by fire. The chemistry between Atakoglu, Caron, and Hernandez on this live date is exemplary, and pushes the boundaries of the piano trio ensemble. They not only complement each other's improvisations, but meld into a singular cohesive unit exhibiting a high standard of flamboyant musicianship on a global scale.
4,5/5 stars
(James Nadal, AllAboutJazz)
 
Состав
Fahir Atakoğlu - piano
Alain Caron - electric bass
Horacio “El Negro” Hernandez - drums
Первый раз слышу (про) этого музыканта, но альбом очень хорош.
Download available for power users only.
22:57
395
Нет комментариев. Ваш будет первым!