Вы используете незарегистрированную версию компонента "Вкладки"!

Поиск

(Fusion, Jazz-Rock) The United Jazz + Rock Ensemble (w. Ian Carr, Albert Mangelsdorff, Eberhard Weber etc) - Live im Schutzenhaus (1977) / Live in Berlin (1981) (2CD) {in-akustik / Mood Records MOOD 4601 CD, Germany} - 2010, APE (image+.cue) lossless

Треклист:
The United Jazz + Rock Ensemble - Live im Schützenhaus / Live in Berlin (2CD)
2 : 1 Edition
Жанр: Fusion, Jazz-Rock
Страна-производитель диска: Germany
Год издания диска: 2010
Издатель (лейбл): in-akustik / Mood Records
Номер по каталогу: MOOD 4601 CD
Аудио кодек: APE (*.ape)
Тип рипа: image+.cue
Битрейт аудио: lossless
Продолжительность: 00:47:44 + 01:08:56
Источник (релизер): barin99
Наличие сканов в содержимом раздачи: да
Треклист:
CD1: Live im Schützenhaus (1977)
1. Circus Gambet
2. Hey Day
3. Steps of M.C. Escher
4. South Indian Line
5. Hypnotic Pignose
6. The Love That Cannot Speak It's Name
7. BeBop-Rock
Recorded September 1977 at Schützenhaus Stuttgart-Heslach, Germany
CD2: Live in Berlin (1981)
1. Ausgeschlafen
2. Red Room
3. Storyboard
4. Out Of The Long Dark
5. Freibad Süd
6. Des'sch Too Much
7. Simply this
8. Tranz Tanz
9. South Indian Line
Recorded October 1981 at Quartier Latin Berlin, Germany
Personnel:
Barbara Thompson — Flute, Sax (Soprano), Sax (Tenor)
Ian Carr — Trumpet
Ack van Rooyen — Flugelhorn, Trumpet
Albert Mangelsdorff — Trombone
Charlie Mariano — Nagaswarm, Sax (Alto), Sax (Soprano)
Volker Kriegel — Guitar
Wolfgang Dauner — Clarinet, Piano, Synthesizer
Eberhard Weber — Bass
Jon Hiseman — Drums
 
Лог создания рипа (EAC Log) - CD1
Exact Audio Copy V1.0 beta 1 from 15. November 2010
EAC extraction logfile from 15. October 2011, 19:07
United Jazz + Rock Ensemble / Live im Schützenhaus
Used drive : TSSTcorpDVD+-RW TS-L532B Adapter: 1 ID: 0
Read mode : Secure
Utilize accurate stream : Yes
Defeat audio cache : Yes
Make use of C2 pointers : No
Read offset correction : 704
Overread into Lead-In and Lead-Out : No
Fill up missing offset samples with silence : Yes
Delete leading and trailing silent blocks : No
Null samples used in CRC calculations : Yes
Used interface : Native Win32 interface for Win NT & 2000
Used output format : Internal WAV Routines
Sample format : 44.100 Hz; 16 Bit; Stereo
TOC of the extracted CD
Track | Start | Length | Start sector | End sector
---------------------------------------------------------
1 | 0:00.33 | 6:00.62 | 33 | 27094
2 | 6:01.20 | 7:38.73 | 27095 | 61517
3 | 13:40.18 | 8:37.00 | 61518 | 100292
4 | 22:17.18 | 7:16.20 | 100293 | 133012
5 | 29:33.38 | 4:28.15 | 133013 | 153127
6 | 34:01.53 | 8:32.62 | 153128 | 191589
7 | 42:34.40 | 5:10.18 | 191590 | 214857
Range status and errors
Selected range
Filename C:\Documents and Settings\VB\My Documents\BARIN99\United Jazz + Rock Ensemble - Live im Schützenhaus\United Jazz + Rock Ensemble - Live im Schützenhaus.wav
Peak level 94.4 %
Extraction speed 0.3 X
Range quality 100.0 %
Copy CRC 568B98AD
Copy OK
No errors occurred
AccurateRip summary
Track 1 accurately ripped (confidence 2) [7EF28A6B]
Track 2 accurately ripped (confidence 2) [F8ED9462]
Track 3 accurately ripped (confidence 2) [F47A6DF7]
Track 4 accurately ripped (confidence 2) [5BCBD936]
Track 5 accurately ripped (confidence 2) [5952995C]
Track 6 accurately ripped (confidence 2) [DA28E979]
Track 7 accurately ripped (confidence 2) [7FEFBDB4]
All tracks accurately ripped
End of status report
 
Содержание индексной карты (.CUE) - CD1
REM GENRE Jazz
REM DATE 1977
REM DISCID 590B3007
REM COMMENT "ExactAudioCopy v1.0b1"
PERFORMER "United Jazz + Rock Ensemble"
TITLE "Live im Schutzenhaus"
FILE "United Jazz + Rock Ensemble - Live im Schutzenhaus.ape" WAVE
TRACK 01 AUDIO
TITLE "Circus Gambet"
PERFORMER "United Jazz + Rock Ensemble"
INDEX 00 00:00:00
INDEX 01 00:00:33
TRACK 02 AUDIO
TITLE "Hey Day"
PERFORMER "United Jazz + Rock Ensemble"
INDEX 01 06:01:20
TRACK 03 AUDIO
TITLE "Steps Of M.C. Escher"
PERFORMER "United Jazz + Rock Ensemble"
INDEX 01 13:40:18
TRACK 04 AUDIO
TITLE "South Indian Line"
PERFORMER "United Jazz + Rock Ensemble"
INDEX 01 22:17:18
TRACK 05 AUDIO
TITLE "Hypnotic Pignose"
PERFORMER "United Jazz + Rock Ensemble"
INDEX 01 29:33:38
TRACK 06 AUDIO
TITLE "The Love That Cannot Speak It's Name"
PERFORMER "United Jazz + Rock Ensemble"
INDEX 01 34:01:53
TRACK 07 AUDIO
TITLE "Be-Bop Rock"
PERFORMER "United Jazz + Rock Ensemble"
INDEX 01 42:34:40
 
Лог создания рипа (EAC Log) - CD2
Exact Audio Copy V1.0 beta 1 from 15. November 2010
EAC extraction logfile from 15. October 2011, 19:36
The United Jazz + Rock Ensemble / Live in Berlin
Used drive : TSSTcorpDVD+-RW TS-L532B Adapter: 1 ID: 0
Read mode : Secure
Utilize accurate stream : Yes
Defeat audio cache : Yes
Make use of C2 pointers : No
Read offset correction : 704
Overread into Lead-In and Lead-Out : No
Fill up missing offset samples with silence : Yes
Delete leading and trailing silent blocks : No
Null samples used in CRC calculations : Yes
Used interface : Native Win32 interface for Win NT & 2000
Used output format : Internal WAV Routines
Sample format : 44.100 Hz; 16 Bit; Stereo
TOC of the extracted CD
Track | Start | Length | Start sector | End sector
---------------------------------------------------------
1 | 0:00.33 | 6:53.71 | 33 | 31078
2 | 6:54.29 | 11:40.09 | 31079 | 83587
3 | 18:34.38 | 4:36.48 | 83588 | 104335
4 | 23:11.11 | 7:45.45 | 104336 | 139255
5 | 30:56.56 | 7:38.00 | 139256 | 173605
6 | 38:34.56 | 10:34.65 | 173606 | 221220
7 | 49:09.46 | 4:13.08 | 221221 | 240203
8 | 53:22.54 | 7:13.27 | 240204 | 272705
9 | 60:36.06 | 8:21.18 | 272706 | 310298
Range status and errors
Selected range
Filename C:\Documents and Settings\VB\My Documents\BARIN99\United Jazz + Rock Ensemble - Live in Berlin\The United Jazz + Rock Ensemble - Live in Berlin.wav
Peak level 94.4 %
Extraction speed 0.3 X
Range quality 100.0 %
Copy CRC F6F53E11
Copy OK
No errors occurred
AccurateRip summary
Track 1 accurately ripped (confidence 2) [7E655367]
Track 2 accurately ripped (confidence 2) [165B7245]
Track 3 accurately ripped (confidence 2) [CC69E09E]
Track 4 accurately ripped (confidence 2) [8722A688]
Track 5 accurately ripped (confidence 2) [D963873C]
Track 6 accurately ripped (confidence 2) [8FB7FA52]
Track 7 accurately ripped (confidence 2) [DE2C8779]
Track 8 accurately ripped (confidence 2) [352D06E1]
Track 9 accurately ripped (confidence 2) [EDBD7BA6]
All tracks accurately ripped
End of status report
 
Содержание индексной карты (.CUE) - CD2
REM GENRE Jazz
REM DATE 1981
REM DISCID 76102909
REM COMMENT "ExactAudioCopy v1.0b1"
PERFORMER "The United Jazz + Rock Ensemble"
TITLE "Live in Berlin"
FILE "The United Jazz + Rock Ensemble - Live in Berlin.ape" WAVE
TRACK 01 AUDIO
TITLE "Ausgeschlafen"
PERFORMER "The United Jazz + Rock Ensemble"
INDEX 00 00:00:00
INDEX 01 00:00:33
TRACK 02 AUDIO
TITLE "Red Room"
PERFORMER "The United Jazz + Rock Ensemble"
INDEX 00 06:53:43
INDEX 01 06:54:29
TRACK 03 AUDIO
TITLE "Storyboard"
PERFORMER "The United Jazz + Rock Ensemble"
INDEX 00 18:33:74
INDEX 01 18:34:38
TRACK 04 AUDIO
TITLE "Out of the Long Dark"
PERFORMER "The United Jazz + Rock Ensemble"
INDEX 00 23:10:13
INDEX 01 23:11:11
TRACK 05 AUDIO
TITLE "Freibad Sud"
PERFORMER "The United Jazz + Rock Ensemble"
INDEX 01 30:56:56
TRACK 06 AUDIO
TITLE "Des'sch Too Much"
PERFORMER "The United Jazz + Rock Ensemble"
INDEX 01 38:34:56
TRACK 07 AUDIO
TITLE "Simpy This"
PERFORMER "The United Jazz + Rock Ensemble"
INDEX 00 49:08:31
INDEX 01 49:09:46
TRACK 08 AUDIO
TITLE "Trans Tanz"
PERFORMER "The United Jazz + Rock Ensemble"
INDEX 01 53:22:54
TRACK 09 AUDIO
TITLE "South Indian Line"
PERFORMER "The United Jazz + Rock Ensemble"
INDEX 01 60:36:06
 
AMG
"Featuring some of the finest avant-garde jazz players from Germany and beyond, the United Jazz + Rock Ensemble began life as a loose studio aggregation assembled for a youth-oriented German television show in 1975. Hoping for a contemporary balance between rock and jazz, producer Werner Schretzmeier called upon pianist Wolfgang Dauner, the former leader of Et Cetera, an avant-garde jazz group Schretzmeier had managed until their breakup in 1972. Initially recruiting musicians from his home base of Stuttgart (then a hotbed of avant-garde jazz), Dauner put together a rotating cast of musicians that were at first dubbed the Eleven and a Half Ensemble (after the program's airtime); this group featured guitarist Volker Kriegel (who shared writing and arranging duties with Dauner), drummer Jon Hiseman, trumpeter Ack Van Rooyen, and trombonist Albert Mangelsdorff. As demand for recordings and public performances grew, Dauner solidified the lineup with saxophonist Charlie Mariano, saxophonist/flutist Barbara Thompson, trumpeter Ian Carr, and bassist Eberhard Weber. This nine-piece aggregation recorded the first album under the United Jazz + Rock Ensemble name, Live im Schutzenhaus, in 1977; released on the group's own Mood Records label, the album was a hit, eventually becoming the best-selling German jazz record of all time.
The Ensemble recorded and toured fairly regularly after the success of Live im Schutzenhaus; 1978's Teamwork and 1979's The Break Even Point placed the group in a studio setting, with the latter featuring trumpeter Kenny Wheeler. 1981's double-LP Live in Berlin was another success, and was followed by United Live Opus Sechs in 1984, with Wheeler back in tow. On 1987's studio album Round Seven, trumpeter Johannes Faber filled in for Wheeler; Wheeler returned once again for the 1992 studio set Na Endlich!, which also featured new bassist Dave King. Mariano was subsequently replaced by tenor saxophonist Christof Lauer, who made his recorded debut on the 1996 concert album Die Neunte von United. In 2002, after well over two decades together, the group announced that it was embarking on a farewell tour, after which its members would move on to other projects (possibly collaborative)."
Any questions - support@pro-jazz.com. Есть вопросы - support@pro-jazz.com
08:55
304
Нет комментариев. Ваш будет первым!