Поиск

(Fusion, Jazz-Rock) [CD] Brian Melvin featuring Jaco Pastorius - Night Food (1985) - 2015 {CDSOL-6360}, FLAC (tracks+.cue), lossless

(Fusion, Jazz-Rock) [CD] Brian Melvin featuring Jaco Pastorius - Night Food (1985) - 2015 {CDSOL-6360}, FLAC (tracks+.cue), lossless
Треклист:
Brian Melvin featuring Jaco Pastorius - Night Food (1985) Жанр: Fusion, Jazz-Rock
Носитель: CD
Страна-производитель диска: Japan
Год издания: 2015
Издатель (лейбл): Timeless Records/Solid Records Japan/Ultra-Vibe
Номер по каталогу: CDSOL-6360
Аудиокодек: FLAC (*.flac)
Тип рипа: tracks+.cue
Битрейт аудио: lossless
Продолжительность: 49:09
Rip by ruskaval
Наличие сканов в содержимом раздачи: да
Треклист:
01. Ain't Nothin' But A Party (1:49)
02. Don't Forget The Bass (4:48)
03. Night Food (2:55)
04. Zen Turtles (5:31)
05. For Max (4:32)
06. Poly Wanna Rhythm (6:48)
07. Primalass (5:05)
08. The Warrior (11:31)
09. Continuum (6:04)
Personnel:
Brian "Whitey" Melvin - drums, percussion
Jaco Pastorius - bass
Rick Smith - saxophone
Jon Davis - piano
Paul Mousavizadeh - guitar
Jeff Osammon - synth
Aushim Chaudhuri - tablas, bongos
Jim Loveless - steel drums
 
 
Лог создания рипа
Exact Audio Copy V1.1 from 23. June 2015
EAC extraction logfile from 22. May 2016, 0:04
Brian Melvin feat. Jaco Pastorius / Night Food
Used drive : TSSTcorpCDDVDW SE-208DB Adapter: 1 ID: 0
Read mode : Secure
Utilize accurate stream : Yes
Defeat audio cache : Yes
Make use of C2 pointers : No
Read offset correction : 6
Overread into Lead-In and Lead-Out : No
Fill up missing offset samples with silence : Yes
Delete leading and trailing silent blocks : No
Null samples used in CRC calculations : Yes
Used interface : Native Win32 interface for Win NT & 2000
Gap handling : Appended to previous track
Used output format : User Defined Encoder
Selected bitrate : 1024 kBit/s
Quality : High
Add ID3 tag : No
Command line compressor : C:\Program Files (x86)\FLAC Frontend\tools\flac.exe
Additional command line options : -8 -V -T "ARTIST=%artist%" -T "TITLE=%title%" -T "ALBUM=%albumtitle%" -T "DATE=%year%" -T "TRACKNUMBER=%tracknr%" -T "TOTALTRACKS=%numtracks%" -T "GENRE=%genre%" -T "ALBUMARTIST=%albumartist%" -T "ALBUM ARTIST=%albumartist%" -T "COMMENT=EAC Secure Mode, Test & Copy, AccurateRip, FLAC -8" %source%
TOC of the extracted CD
Track | Start | Length | Start sector | End sector
---------------------------------------------------------
1 | 0:00.00 | 1:48.51 | 0 | 8150
2 | 1:48.51 | 4:47.54 | 8151 | 29729
3 | 6:36.30 | 2:54.39 | 29730 | 42818
4 | 9:30.69 | 5:30.52 | 42819 | 67620
5 | 15:01.46 | 4:31.57 | 67621 | 88002
6 | 19:33.28 | 6:48.25 | 88003 | 118627
7 | 26:21.53 | 5:04.63 | 118628 | 141490
8 | 31:26.41 | 11:31.36 | 141491 | 193351
9 | 42:58.02 | 6:04.16 | 193352 | 220667
Track 1
Filename D:\_EAC\Brian Melvin feat. Jaco Pastorius - Night Food (1985) [FLAC] {CDSOL-6360}\01 - Ain't Nothin' But A Party.wav
Pre-gap length 0:00:02.00
Peak level 97.3 %
Extraction speed 2.1 X
Track quality 100.0 %
Test CRC E9392E69
Copy CRC E9392E69
Accurately ripped (confidence 1) [1BBA13E2] (AR v2)
Copy OK
Track 2
Filename D:\_EAC\Brian Melvin feat. Jaco Pastorius - Night Food (1985) [FLAC] {CDSOL-6360}\02 - Don't Forget The Bass.wav
Peak level 97.3 %
Extraction speed 2.8 X
Track quality 100.0 %
Test CRC F5895C94
Copy CRC F5895C94
Accurately ripped (confidence 1) [307CADE8] (AR v2)
Copy OK
Track 3
Filename D:\_EAC\Brian Melvin feat. Jaco Pastorius - Night Food (1985) [FLAC] {CDSOL-6360}\03 - Night Food.wav
Peak level 97.3 %
Extraction speed 2.8 X
Track quality 100.0 %
Test CRC B8614FD9
Copy CRC B8614FD9
Accurately ripped (confidence 1) [2057EFDB] (AR v2)
Copy OK
Track 4
Filename D:\_EAC\Brian Melvin feat. Jaco Pastorius - Night Food (1985) [FLAC] {CDSOL-6360}\04 - Zen Turtles.wav
Peak level 97.3 %
Extraction speed 2.9 X
Track quality 99.9 %
Test CRC 920C1091
Copy CRC 920C1091
Accurately ripped (confidence 1) [67E0B771] (AR v2)
Copy OK
Track 5
Filename D:\_EAC\Brian Melvin feat. Jaco Pastorius - Night Food (1985) [FLAC] {CDSOL-6360}\05 - For Max.wav
Peak level 97.3 %
Extraction speed 3.6 X
Track quality 100.0 %
Test CRC 1D02982C
Copy CRC 1D02982C
Accurately ripped (confidence 1) [B7058B83] (AR v2)
Copy OK
Track 6
Filename D:\_EAC\Brian Melvin feat. Jaco Pastorius - Night Food (1985) [FLAC] {CDSOL-6360}\06 - Poly Wanna Rhythm.wav
Peak level 97.3 %
Extraction speed 3.6 X
Track quality 99.9 %
Test CRC 3192EFD6
Copy CRC 3192EFD6
Accurately ripped (confidence 1) [868112A9] (AR v2)
Copy OK
Track 7
Filename D:\_EAC\Brian Melvin feat. Jaco Pastorius - Night Food (1985) [FLAC] {CDSOL-6360}\07 - Primalass.wav
Peak level 97.3 %
Extraction speed 4.3 X
Track quality 100.0 %
Test CRC 6FB64B14
Copy CRC 6FB64B14
Accurately ripped (confidence 1) [492C5C26] (AR v2)
Copy OK
Track 8
Filename D:\_EAC\Brian Melvin feat. Jaco Pastorius - Night Food (1985) [FLAC] {CDSOL-6360}\08 - The Warrior.wav
Peak level 97.3 %
Extraction speed 5.0 X
Track quality 100.0 %
Test CRC 19919B2D
Copy CRC 19919B2D
Accurately ripped (confidence 1) [31F9D1B1] (AR v2)
Copy OK
Track 9
Filename D:\_EAC\Brian Melvin feat. Jaco Pastorius - Night Food (1985) [FLAC] {CDSOL-6360}\09 - Continuum.wav
Peak level 97.3 %
Extraction speed 4.3 X
Track quality 99.9 %
Test CRC 87E3EBF7
Copy CRC 87E3EBF7
Accurately ripped (confidence 1) [DDC3D8D8] (AR v2)
Copy OK
All tracks accurately ripped
No errors occurred
End of status report
==== Log checksum 426241B7C8514E66BFA4B17D19D1BDC7B2153F4438E181086AFB494419A13777 ====
 
Содержание индексной карты (.CUE)
REM GENRE Jazz
REM DATE 1985
REM DISCID 790B7E09
REM COMMENT "ExactAudioCopy v1.1"
PERFORMER "Brian Melvin feat. Jaco Pastorius"
TITLE "Night Food"
FILE "01 - Ain't Nothin' But A Party.wav" WAVE
TRACK 01 AUDIO
TITLE "Ain't Nothin' But A Party"
PERFORMER "Brian Melvin feat. Jaco Pastorius"
FLAGS DCP
INDEX 01 00:00:00
FILE "02 - Don't Forget The Bass.wav" WAVE
TRACK 02 AUDIO
TITLE "Don't Forget The Bass"
PERFORMER "Brian Melvin feat. Jaco Pastorius"
FLAGS DCP
INDEX 01 00:00:00
FILE "03 - Night Food.wav" WAVE
TRACK 03 AUDIO
TITLE "Night Food"
PERFORMER "Brian Melvin feat. Jaco Pastorius"
FLAGS DCP
INDEX 01 00:00:00
FILE "04 - Zen Turtles.wav" WAVE
TRACK 04 AUDIO
TITLE "Zen Turtles"
PERFORMER "Brian Melvin feat. Jaco Pastorius"
FLAGS DCP
INDEX 01 00:00:00
FILE "05 - For Max.wav" WAVE
TRACK 05 AUDIO
TITLE "For Max"
PERFORMER "Brian Melvin feat. Jaco Pastorius"
FLAGS DCP
INDEX 01 00:00:00
FILE "06 - Poly Wanna Rhythm.wav" WAVE
TRACK 06 AUDIO
TITLE "Poly Wanna Rhythm"
PERFORMER "Brian Melvin feat. Jaco Pastorius"
FLAGS DCP
INDEX 01 00:00:00
FILE "07 - Primalass.wav" WAVE
TRACK 07 AUDIO
TITLE "Primalass"
PERFORMER "Brian Melvin feat. Jaco Pastorius"
FLAGS DCP
INDEX 01 00:00:00
FILE "08 - The Warrior.wav" WAVE
TRACK 08 AUDIO
TITLE "The Warrior"
PERFORMER "Brian Melvin feat. Jaco Pastorius"
FLAGS DCP
INDEX 01 00:00:00
FILE "09 - Continuum.wav" WAVE
TRACK 09 AUDIO
TITLE "Continuum"
PERFORMER "Brian Melvin feat. Jaco Pastorius"
FLAGS DCP
INDEX 01 00:00:00
Приватный:
Нет (DHT включён)
Размер:
525.93 Мб (551,475,933 байт) » файлов: 27
Участники:
0 раздают, 0 качают (0 участников всего)
Внешние участники:
5 раздают, 1 качают (6 участников всего) [ Обновить ]
For power users only: no seeders - write to support@pro-jazz.com. Для power user: нет сидеров - пишите на support@pro-jazz.com.
01:10
102
Нет комментариев. Ваш будет первым!