Вы используете незарегистрированную версию компонента "Вкладки"!

Поиск

(Fusion, Jazz-Funk) [CD] Oz Noy (w/ Jim Beard, Vinnie Colaiuta, Jimmy Johnson, Anton Fig) - Fuzzy - 2007, FLAC (tracks+.cue), lossless

(Fusion, Jazz-Funk) [CD] Oz Noy (w/ Jim Beard, Vinnie Colaiuta, Jimmy Johnson, Anton Fig) - Fuzzy - 2007, FLAC (tracks+.cue), lossless
Треклист:
Oz Noy / Fuzzy
Жанр: Fusion, Jazz-Funk
Носитель: CD
Страна-производитель диска: US
Год издания: 2007
Издатель (лейбл): Magnatude Records
Номер по каталогу: MT-2314-2
Страна: Israel
Аудиокодек: FLAC (*.flac)
Тип рипа: tracks+.cue
Битрейт аудио: lossless
Продолжительность: 67:23
Источник (релизер): waffles.fm
Наличие сканов в содержимом раздачи:
Треклист:
1. Which Way Is Up!
2. Cosmic Background
3. Fuzzy
4. Three Wishes
5. EpistroFunk
6. Intensity
7. Sometimes It Snows In April
8. Yeah, Yeah, Yeah
9. In A Simple Way
10. Evidence
 
Лог создания рипа
Exact Audio Copy V1.0 beta 3 from 29. August 2011
EAC extraction logfile from 17. August 2014, 16:26
Oz Noy / Fuzzy
Used drive : PIONEER DVD-RW DVR-110 Adapter: 1 ID: 1
Read mode : Secure
Utilize accurate stream : Yes
Defeat audio cache : Yes
Make use of C2 pointers : No
Read offset correction : 48
Overread into Lead-In and Lead-Out : No
Fill up missing offset samples with silence : Yes
Delete leading and trailing silent blocks : No
Null samples used in CRC calculations : Yes
Used interface : Native Win32 interface for Win NT & 2000
Gap handling : Appended to previous track
Used output format : User Defined Encoder
Selected bitrate : 1024 kBit/s
Quality : High
Add ID3 tag : No
Command line compressor : C:\Program Files\Exact Audio Copy\FLAC\FLAC.EXE
Additional command line options : -8 -V -T "ARTIST=%artist%" -T "TITLE=%title%" -T "ALBUM=%albumtitle%" -T "DATE=%year%" -T "TRACKNUMBER=%tracknr%" -T "GENRE=%genre%" -T "PERFORMER=%albuminterpret%" -T "COMPOSER=%composer%" %haslyrics%--tag-from-file=LYRICS="%lyricsfile%"%haslyrics% -T "ALBUMARTIST=%albumartist%" -T "DISCNUMBER=%cdnumber%" -T "TOTALDISCS=%totalcds%" -T "TOTALTRACKS=%numtracks%" -T "COMMENT=%comment%" %source% -o %dest%
TOC of the extracted CD
Track | Start | Length | Start sector | End sector
---------------------------------------------------------
1 | 0:00.00 | 7:59.03 | 0 | 35927
2 | 7:59.03 | 6:57.02 | 35928 | 67204
3 | 14:56.05 | 7:09.02 | 67205 | 99381
4 | 22:05.07 | 7:35.36 | 99382 | 133542
5 | 29:40.43 | 7:20.37 | 133543 | 166579
6 | 37:01.05 | 6:33.36 | 166580 | 196090
7 | 43:34.41 | 6:33.66 | 196091 | 225631
8 | 50:08.32 | 4:54.49 | 225632 | 247730
9 | 55:03.06 | 7:44.10 | 247731 | 282540
10 | 62:47.16 | 4:36.19 | 282541 | 303259
Track 1
Filename M:\01 - Which Way Is Up!.wav
Pre-gap length 0:00:02.00
Peak level 100.0 %
Extraction speed 4.6 X
Track quality 99.9 %
Test CRC 081B2049
Copy CRC 081B2049
Accurately ripped (confidence 2) [0E9E54F8] (AR v2)
Copy OK
Track 2
Filename M:\02 - Cosmic Background.wav
Pre-gap length 0:00:00.76
Peak level 100.0 %
Extraction speed 5.6 X
Track quality 100.0 %
Test CRC 118FC303
Copy CRC 118FC303
Accurately ripped (confidence 2) [29DF68E6] (AR v2)
Copy OK
Track 3
Filename M:\03 - Fuzzy.wav
Pre-gap length 0:00:00.73
Peak level 100.0 %
Extraction speed 6.2 X
Track quality 100.0 %
Test CRC C36F73D9
Copy CRC C36F73D9
Accurately ripped (confidence 2) [10AF3FA7] (AR v2)
Copy OK
Track 4
Filename M:\04 - Three Wishes.wav
Pre-gap length 0:00:01.00
Peak level 100.0 %
Extraction speed 6.4 X
Track quality 99.9 %
Test CRC 6B914DEA
Copy CRC 6B914DEA
Accurately ripped (confidence 2) [1E9DBCF9] (AR v2)
Copy OK
Track 5
Filename M:\05 - EpistroFunk.wav
Pre-gap length 0:00:01.33
Peak level 100.0 %
Extraction speed 7.3 X
Track quality 100.0 %
Test CRC 29F3C5BE
Copy CRC 29F3C5BE
Accurately ripped (confidence 2) [B68CA64F] (AR v2)
Copy OK
Track 6
Filename M:\06 - Intensity.wav
Pre-gap length 0:00:00.96
Peak level 100.0 %
Extraction speed 7.7 X
Track quality 100.0 %
Test CRC B73B37B1
Copy CRC B73B37B1
Accurately ripped (confidence 2) [45E4DB42] (AR v2)
Copy OK
Track 7
Filename M:\07 - Sometimes It Snows In April.wav
Pre-gap length 0:00:01.16
Peak level 100.0 %
Extraction speed 8.1 X
Track quality 100.0 %
Test CRC 6A873704
Copy CRC 6A873704
Accurately ripped (confidence 2) [84BA389E] (AR v2)
Copy OK
Track 8
Filename M:\08 - Yeah, Yeah, Yeah.wav
Pre-gap length 0:00:01.10
Peak level 100.0 %
Extraction speed 8.1 X
Track quality 100.0 %
Test CRC F73234AD
Copy CRC F73234AD
Accurately ripped (confidence 2) [73CA5A6A] (AR v2)
Copy OK
Track 9
Filename M:\09 - In A Simple Way.wav
Pre-gap length 0:00:01.22
Peak level 100.0 %
Extraction speed 8.3 X
Track quality 99.9 %
Test CRC 53A37CD2
Copy CRC 53A37CD2
Accurately ripped (confidence 2) [5ECCFB12] (AR v2)
Copy OK
Track 10
Filename M:\10 - Evidence.wav
Pre-gap length 0:00:01.58
Peak level 100.0 %
Extraction speed 7.3 X
Track quality 99.9 %
Test CRC D10FECB0
Copy CRC D10FECB0
Accurately ripped (confidence 2) [9CCD9CF7] (AR v2)
Copy OK
All tracks accurately ripped
No errors occurred
End of status report
---- CUETools DB Plugin V2.1.3
[CTDB TOCID: 9cZr9xSOx2h8p15Ej9opYz2uRdo-] found, Submit result: 9cZr9xSOx2h8p15Ej9opYz2uRdo- has been confirmed
[856148c8] (5/5) Accurately ripped
==== Log checksum 13818084F543C948F6D1B0BA26441D03F9CB92174B31941E01C10EAF496AEC34 ====
 
Содержание индексной карты (.CUE)
REM GENRE Jazz
REM DATE 2007
REM DISCID 870FCB0A
REM COMMENT "ExactAudioCopy v1.0b3"
PERFORMER "Oz Noy"
TITLE "Fuzzy"
FILE "01 - Which Way Is Up!.wav" WAVE
TRACK 01 AUDIO
TITLE "Which Way Is Up?!"
PERFORMER "Oz Noy"
INDEX 01 00:00:00
TRACK 02 AUDIO
TITLE "Cosmic Background"
PERFORMER "Oz Noy"
INDEX 00 07:58:21
FILE "02 - Cosmic Background.wav" WAVE
INDEX 01 00:00:00
TRACK 03 AUDIO
TITLE "Fuzzy"
PERFORMER "Oz Noy"
INDEX 00 06:56:22
FILE "03 - Fuzzy.wav" WAVE
INDEX 01 00:00:00
TRACK 04 AUDIO
TITLE "Three Wishes"
PERFORMER "Oz Noy"
INDEX 00 07:08:02
FILE "04 - Three Wishes.wav" WAVE
INDEX 01 00:00:00
TRACK 05 AUDIO
TITLE "EpistroFunk"
PERFORMER "Oz Noy"
INDEX 00 07:34:11
FILE "05 - EpistroFunk.wav" WAVE
INDEX 01 00:00:00
TRACK 06 AUDIO
TITLE "Intensity"
PERFORMER "Oz Noy"
INDEX 00 07:19:40
FILE "06 - Intensity.wav" WAVE
INDEX 01 00:00:00
TRACK 07 AUDIO
TITLE "Sometimes It Snows In April"
PERFORMER "Oz Noy"
INDEX 00 06:32:24
FILE "07 - Sometimes It Snows In April.wav" WAVE
INDEX 01 00:00:00
TRACK 08 AUDIO
TITLE "Yeah, Yeah, Yeah"
PERFORMER "Oz Noy"
INDEX 00 06:32:58
FILE "08 - Yeah, Yeah, Yeah.wav" WAVE
INDEX 01 00:00:00
TRACK 09 AUDIO
TITLE "In A Simple Way"
PERFORMER "Oz Noy"
INDEX 00 04:53:32
FILE "09 - In A Simple Way.wav" WAVE
INDEX 01 00:00:00
TRACK 10 AUDIO
TITLE "Evidence"
PERFORMER "Oz Noy"
INDEX 00 07:42:41
FILE "10 - Evidence.wav" WAVE
INDEX 01 00:00:00
 
Лог проверки качества
d:\>d:\aucdtect -d/-m0 d:\zzz\*.wav
auCDtect: CD records authenticity detector, version 0.8.2
Copyright (c) 2004 Oleg Berngardt. All rights reserved.
Copyright (c) 2004 Alexander Djourik. All rights reserved.
------------------------------------------------------------
Processing file: [01. Which Way Is Up!.wav]
------------------------------------------------------------
This track looks like MPEG with probability 95%
------------------------------------------------------------
Processing file: [02. Cosmic Background.wav]
------------------------------------------------------------
This track looks like MPEG with probability 95%
------------------------------------------------------------
Processing file: [03. Fuzzy.wav]
------------------------------------------------------------
This track looks like MPEG with probability 95%
------------------------------------------------------------
Processing file: [04. Three Wishes.wav]
------------------------------------------------------------
This track looks like CDDA with probability 100%
------------------------------------------------------------
Processing file: [05. EpistroFunk.wav]
------------------------------------------------------------
This track looks like MPEG with probability 95%
------------------------------------------------------------
Processing file: [06. Intensity.wav]
------------------------------------------------------------
This track looks like CDDA with probability 100%
------------------------------------------------------------
Processing file: [07. Sometimes It Snows In April.wav]
------------------------------------------------------------
This track looks like CDDA with probability 100%
------------------------------------------------------------
Processing file: [08. Yeah, Yeah, Yeah.wav]
------------------------------------------------------------
This track looks like MPEG with probability 95%
------------------------------------------------------------
Processing file: [09. In A Simple Way.wav]
------------------------------------------------------------
This track looks like CDDA with probability 100%
------------------------------------------------------------
Processing file: [10. Evidence.wav]
------------------------------------------------------------
This track looks like MPEG with probability 95%
------------------------------------------------------------
Final Conclusion:
------------------------------------------------------------
These tracks looks like CDDA with probability 100%
Доп. информация:
 
AAJ Review
As a sixteen-year old guitarist, Oz Noy made a noticeable splash in his native Israel. Since immigrating to New York, he's risen to first-call session status for a consortium of highly-visible pop, rock and jazz acts. But it's his solo recordings that have created the big buzz within progressive-rock circles. With his follow-up to Ha! (Magnatude, 2005), the artist once again aligns himself with the creme de la creme of jazz and rock artistes. Enviable chops aside, Noy helps redefine an oft-missing element of taste, amidst an accessible, groove-drenched realm of music that is engineered upon memorable compositions and enticing arrangements.
Noy's craft features soaring hard-rock lines, jazz riffs, and jazz-fusion like phrasings, but also incorporates loops, and delay techniques into the grand scheme. Yet he employs effects with the intentions of a magician who conveys a sleight-of-hand. Amid the accelerating and decelerating rhythmic frameworks, the guitarist renders subtle shadings, largely used as a textural component.
Noy is a shrewd improviser, while steering his crack band through variable shifts in strategy. On "Cosmic Background," he leads a slow-drag funk-rock pulse via chunka-chunka type chord progressions, contrasted by upper-register tweaks and harmonics. Noy instills a continual sense of motion throughout the entire session.
Drummer Keith Carlock pounds out a polyrhythmic solo during the turbo-charged title track. Although Noy tempers the overall flow with his memorably melodic ballad, "Three Wishes," it's nicely counterbalanced by his stinging solo.
Other highlights include the guitarist's quirky fusion of dissonant voicings and wah-wah based lines above an odd-metered punch groove on Thelonious Monk's "Evidence." Noy is rapidly establishing a singular identity within these music circles. It's not all about ceaseless soloing and tossing caution to the wind. He shines as a skilled artisan who is apt to prod one's psyche, while communicating an upbeat scope of attack that yields numerous rewards.
 
Состав
Oz Noy: guitars
Vinnie Colaiuta: drums (5,7,10)
Will Lee: bass guitar (1,4,6,8)
Jimmy Johnson: bass guitar (5,7,10)
Anton Fig: drums (1,4,6,8)
James Genus: bass guitar (1,2,3,9)
Jim Beard: Fender Rhodes piano, organ (2,3,5,6)
Keith Carlock: drums (1,2,3,9)
George Whitty: organ, Wurlitzer (3,8)
Shai Bahar: synthesizer, Wurlitzer (2,4)
Any questions - support@pro-jazz.com. Есть вопросы - support@pro-jazz.com
10:16
269
Нет комментариев. Ваш будет первым!