Поиск

(Fusion) Jörg (J.K.) Kleutgens (feat. Dave Weckl) - J. K. Special (1993), APE (image+.cue), lossless

(Fusion) Jörg (J.K.) Kleutgens (feat. Dave Weckl) - J. K. Special (1993), APE (image+.cue), lossless
Треклист:
Jörg (J.K.) Kleutgens (feat. Dave Weckl) - J. K. Special
Жанр: Fusion
Год выпуска диска: 1993
Производитель диска: Lipstick Records (USA)
Аудио кодек: APE
Тип рипа: image+.cue
Битрейт аудио: lossless
Продолжительность: 43:44
Трэклист:
1. Crossfire (4:41)
2. S.W.I. (4:10)
3. Bodega (5:06)
4. Shine On Me (6:58)
5. Special (5:45)
6. I Still Love You (5:57)
7. B.A.C. (5:25)
8. Ride Home (5:42)
 
Отчёт ЕАС
Exact Audio Copy V0.99 prebeta 4 from 23. January 2008
Отчёт EAC об извлечении, выполненном 17. октября 2008, 22:19
Dave Weckl / J. K. Special
Дисковод: ASUS DRW-2014L1T Adapter: 4 ID: 0
Режим чтения : Достоверность
Использование точного потока : Да
Отключение кэша аудио : Да
Использование указателей C2 : Нет
Коррекция смещения при чтении : 6
Способность читать области Lead-in и Lead-out : Нет
Заполнение пропущенных сэмплов тишиной : Да
Удаление блоков с тишиной в начале и конце : Нет
При вычислениях CRC использовались нулевые сэмплы : Нет
Интерфейс : Установленный внешний ASPI-интерфейс
Выходной формат : Monkey's Audio (без потерь)
Выбранный битрейт : Extra High Lossless Compression
Качество : Высокий
Добавление ID3-тэга : Нет
Утилита сжатия : C:\Program Files\Monkey's Audio\MAC.exe
TOC извлечённого CD
Трек | Старт | Длительность | Начальный сектор | Конечный сектор
---------------------------------------------------------------------
1 | 0:00.00 | 4:41.65 | 0 | 21139
2 | 4:41.65 | 4:09.72 | 21140 | 39886
3 | 8:51.62 | 5:05.14 | 39887 | 62775
4 | 13:57.01 | 6:58.18 | 62776 | 94143
5 | 20:55.19 | 5:45.10 | 94144 | 120028
6 | 26:40.29 | 5:56.72 | 120029 | 146800
7 | 32:37.26 | 5:25.06 | 146801 | 171181
8 | 38:02.32 | 5:42.37 | 171182 | 196868
Характеристики диапазона извлечения и сообщения об ошибках
Выбранный диапазон
Имя файла D:\Collection\Lock\Lossless\Dave Weckl\Dave Weckl - J. K. Special\Dave Weckl - J. K. Special.wav
Пиковый уровень 100.0 %
Качество диапазона 100.0 %
CRC копии 6E421423
Копирование... OK
Ошибок не произошло
Конец отчёта
Приватный:
Нет (DHT включён)
Размер:
271.74 Мб (284,936,500 байт) » файлов: 5
Участники:
0 раздают, 0 качают (0 участников всего)
Внешние участники:
1 раздают, 0 качают (1 участников всего) [ Обновить ]
For power users only: no seeders - write to support@pro-jazz.com. Для power user: нет сидеров - пишите на support@pro-jazz.com.
19:07
146
Нет комментариев. Ваш будет первым!