Поиск

(Fusion / Hard Bop / Trumpet Jazz) Terumasa Hino {日野皓正}: Hino=Kikuchi Quintet (1968) / Terumasa Hino Quintet: Hi-Nology (1969), FLAC (image+.cue) lossless

Terumasa Hino: Hino=Kikuchi Quintet (1968) / Terumasa Hino Quintet: Hi-Nology (1969)
Жанр: Fusion / Hard Bop / Trumpet Jazz
Страна-производитель cd-диска: Japan
Издатель (лейбл): Denon
Аудио кодек: FLAC (*.flac)
Тип рипа: image+.cue
Битрейт аудио: lossless
Источник (релизер): рипы мои . cd тоже .
Наличие сканов в содержимом раздачи: нет
.
.
.
.
.
.
.
.

Треклист и прочее:
 
Hino=Kikuchi Quintet: {00:32:11} / 32C38-7873 / CD Rel. 1986

Трэклист:
01. Tender Passion (9:19)
02. Ideal Portrait (6:02)
03. Long Trip (9:16)
04. H.G. and Pretty (7:33)Terumasa Hino - (tp)
Masabumi Kikuchi - (p)
Takeru Muraoka - (ts)
Kunimitsu Inaba - (b)
Motohiko Hino (ds)
Recorded at August 22, 30, 1968
 
Лог EAC
Exact Audio Copy V0.99 prebeta 5 from 4. May 2009
Отчёт EAC об извлечении, выполненном 7. ноября 2010, 13:44
Hino Terumasa / Hino=Kikuchi Quintet
Дисковод: SONY DVD RW DRX-S70U Adapter: 1 ID: 0
Режим чтения : Достоверность
Использование точного потока : Да
Отключение кэша аудио : Да
Использование указателей C2 : Нет
Коррекция смещения при чтении : 48
Способность читать области Lead-in и Lead-out : Нет
Заполнение пропущенных сэмплов тишиной : Да
Удаление блоков с тишиной в начале и конце : Нет
При вычислениях CRC использовались нулевые сэмплы : Да
Интерфейс : Встроенный Win32-интерфейс для Win NT/2000
Выходной формат : Пользовательский кодировщик
Выбранный битрейт : 768 kBit/s
Качество : Высокий
Добавление ID3-тэга : Нет
Утилита сжатия : H:\Program Files\Exact Audio Copy\Flac\flac.exe
Дополнительные параметры : -6 -V -T "ARTIST=%a" -T "TITLE=%t" -T "ALBUM=%g" -T "DATE=%y" -T "TRACKNUMBER=%n" -T "GENRE=%m" -T "COMMENT=%e" %s -o %d
TOC извлечённого CD
Трек | Старт | Длительность | Начальный сектор | Конечный сектор
---------------------------------------------------------------------
1 | 0:00.00 | 9:18.67 | 0 | 41916
2 | 9:18.67 | 6:02.30 | 41917 | 69096
3 | 15:21.22 | 9:16.10 | 69097 | 110806
4 | 24:37.32 | 7:33.08 | 110807 | 144789
Характеристики диапазона извлечения и сообщения об ошибках
Выбранный диапазон
Имя файла F:\Hino Terumasa\Hino Terumasa - Hino=Kikuchi Quintet.wav
Пиковый уровень 93.8 %
Качество диапазона 99.9 %
CRC теста 2886A348
CRC копии 2886A348
Копирование... OK
Ошибок не произошло
AccurateRip: сводка
Трек 1 нет в базе данных
Трек 2 нет в базе данных
Трек 3 нет в базе данных
Трек 4 нет в базе данных
Ни одного трека нет в базе AccurateRip
Конец отчёта
 
Лог Audiochecker
AUDIOCHECKER v2.0 beta (build 457) - by Dester - opdester@freemail.hu
~~~~~~~~~~~~~~~~~~~~~~~~~~~~~~~~~~
-=== DO NOT EDIT THIS FILE! ===-
Path: ...\Terumasa Hino
1 -=- Hino Terumasa - Hino=Kikuchi Quintet.flac -=- CDDA (100%)
121985316
 
*CUE
Код:
REM GENRE Jazz
REM DATE 1968
REM DISCID 30078A04
REM COMMENT "ExactAudioCopy v0.99pb5"
PERFORMER "Hino Terumasa"
TITLE "Hino=Kikuchi Quintet"
FILE "Hino Terumasa - Hino=Kikuchi Quintet.flac" WAVE
  TRACK 01 AUDIO
    TITLE "Tender Passion"
    PERFORMER "Hino Terumasa"
    INDEX 01 00:00:00
  TRACK 02 AUDIO
    TITLE "Ideal Portrait"
    PERFORMER "Hino Terumasa"
    INDEX 00 09:16:57
    INDEX 01 09:18:67
  TRACK 03 AUDIO
    TITLE "Long Trip"
    PERFORMER "Hino Terumasa"
    INDEX 00 15:18:72
    INDEX 01 15:21:22
  TRACK 04 AUDIO
    TITLE "H.G. and Pretty"
    PERFORMER "Hino Terumasa"
    INDEX 00 24:35:25
    INDEX 01 24:37:32
 
Hi-Nology: {00:43:50} / 32C38-7691 / CD Rel. 1985

Трэклист:
01. Like Miles (9:55)
02. Electric Zoo (12:28)
03. Hi-Nology (14:31)
04. Dupe (6:56)Terumasa Hino - (tp)
Takeru Muraoka - (ts)
Hiromasa Suzuki - (ep)
Motohiko Hino - (ds)
Kunimitsu Inaba - (eb)
Recorded at Yamaha Hall Ginza on July 31, 1969
 
Лог EAC
Exact Audio Copy V0.99 prebeta 5 from 4. May 2009
Отчёт EAC об извлечении, выполненном 7. ноября 2010, 14:48
Terumasa Hino Quintet / Hi-Nology
Дисковод: SONY DVD RW DRX-S70U Adapter: 1 ID: 0
Режим чтения : Достоверность
Использование точного потока : Да
Отключение кэша аудио : Да
Использование указателей C2 : Нет
Коррекция смещения при чтении : 48
Способность читать области Lead-in и Lead-out : Нет
Заполнение пропущенных сэмплов тишиной : Да
Удаление блоков с тишиной в начале и конце : Нет
При вычислениях CRC использовались нулевые сэмплы : Да
Интерфейс : Встроенный Win32-интерфейс для Win NT/2000
Выходной формат : Пользовательский кодировщик
Выбранный битрейт : 768 kBit/s
Качество : Высокий
Добавление ID3-тэга : Нет
Утилита сжатия : H:\Program Files\Exact Audio Copy\Flac\flac.exe
Дополнительные параметры : -6 -V -T "ARTIST=%a" -T "TITLE=%t" -T "ALBUM=%g" -T "DATE=%y" -T "TRACKNUMBER=%n" -T "GENRE=%m" -T "COMMENT=%e" %s -o %d
TOC извлечённого CD
Трек | Старт | Длительность | Начальный сектор | Конечный сектор
---------------------------------------------------------------------
1 | 0:00.00 | 9:54.45 | 0 | 44594
2 | 9:54.45 | 12:28.15 | 44595 | 100709
3 | 22:22.60 | 14:31.05 | 100710 | 166039
4 | 36:53.65 | 6:56.05 | 166040 | 197244
Характеристики диапазона извлечения и сообщения об ошибках
Выбранный диапазон
Имя файла F:\Terumasa Hino Quintet\Terumasa Hino Quintet - Hi-Nology.wav
Пиковый уровень 75.1 %
Качество диапазона 99.9 %
CRC теста 0871DA78
CRC копии 0871DA78
Копирование... OK
Ошибок не произошло
AccurateRip: сводка
Трек 1 нет в базе данных
Трек 2 нет в базе данных
Трек 3 нет в базе данных
Трек 4 нет в базе данных
Ни одного трека нет в базе AccurateRip
Конец отчёта
 
Лог Audiochecker
AUDIOCHECKER v2.0 beta (build 457) - by Dester - opdester@freemail.hu
~~~~~~~~~~~~~~~~~~~~~~~~~~~~~~~~~~
-=== DO NOT EDIT THIS FILE! ===-
Path: ...\Terumasa Hino Quintet
1 -=- Terumasa Hino Quintet - Hi-Nology.flac -=- CDDA (100%)
248802228
 
*CUE
Код:
REM GENRE Jazz
REM DATE 1969
REM DISCID 2C0A4504
REM COMMENT "ExactAudioCopy v0.99pb5"
PERFORMER "Terumasa Hino Quintet"
TITLE "Hi-Nology"
FILE "Terumasa Hino Quintet - Hi-Nology.flac" WAVE
  TRACK 01 AUDIO
    TITLE "Like Miles"
    PERFORMER "Terumasa Hino Quintet"
    INDEX 01 00:00:00
  TRACK 02 AUDIO
    TITLE "Electric Zoo"
    PERFORMER "Terumasa Hino Quintet"
    INDEX 00 09:51:60
    INDEX 01 09:54:45
  TRACK 03 AUDIO
    TITLE "Hi-Nology"
    PERFORMER "Terumasa Hino Quintet"
    INDEX 00 22:21:42
    INDEX 01 22:22:60
  TRACK 04 AUDIO
    TITLE "Dupe"
    PERFORMER "Terumasa Hino Quintet"
    INDEX 00 36:52:52
    INDEX 01 36:53:65
22:43
989
Нет комментариев. Ваш будет первым!