Поиск

(Fusion, Hard Bop) Terumasa Hino - The Best (Japan Edition) - 1993, APE (image+.cue), lossless

Terumasa Hino - The Best
Жанр: Fusion, Hard Bop
Год выпуска диска: 1993
Производитель диска: Somethin' Else/Toshiba-Japan (TOCJ-5549)
Аудио кодек: APE
Тип рипа: image+.cue
Битрейт аудио: lossless
Продолжительность: 73:57
Трэклист:
01. Sweet Love of Mine (Woody Shaw)
02. Kimiko (Terumasa Hino)
03. Blue Smiles (Terumasa Hino)
04. My Funny Valentine (L. Hart-R. Rodgers)
05. Free Mandela (Terumasa Hino)
06. Wind Blows Your Skin (Terumasa Hino)
07. Unforgettable (I. Gordon)
08. Hugo (Terumasa Hino)
09. All the Things You Are (O. Hammerstein II-J. Kern)
10. Alone, Alone and Alone (Terumasa Hino)
11. Like Miles (Terumasa Hino)
Тэрумаса Хино
Родился в Токио 25 октября 1942 года. Превосходный трубач и флюгельгорнист, испытавший влияние Фрэдди Хаббарда и Майлса Дэвиса, Тэрумаса Хино является одним из ведущих джазовых музыкантов Японии. Будучи профессионалом с 1955 года, Тэрумаса Хино стал известен в США лишь с 70-х годов - благодаря своим записям для Enja. (Правда, некоторые его альбомы могли попасть к американским джазфэнам и благодаря таким лэйблам, как Catalyst, Inner City и Blue Note.) В 1975 году Тэрумаса Хино переехал в США, где он работал с Гилом Эвансом, Джеки МакЛином, Дэйвом Либмэном и Элвином Джонсом. С начала же 80-х годах Хино жил преимущественно в Японии, записываясь в весьма отличных друг от друга стилях — от straight-ahead до фьюжн. (с) st52.narod.ru
 
EAC.log
Exact Audio Copy V0.99 prebeta 4 from 23. January 2008
EAC extraction logfile from 13. March 2009, 22:27
Terumasa Hino / THE BEST
Used drive : PLEXTOR DVDR PX-750A Adapter: 2 ID: 1
Read mode : Secure
Utilize accurate stream : Yes
Defeat audio cache : Yes
Make use of C2 pointers : No
Read offset correction : 102
Overread into Lead-In and Lead-Out : No
Fill up missing offset samples with silence : Yes
Delete leading and trailing silent blocks : No
Null samples used in CRC calculations : Yes
Used interface : Native Win32 interface for Win NT & 2000
Used output format : Monkey's Audio Lossless Encoder v3.99 DLL
Sample format : Normal Lossless Compression
TOC of the extracted CD
Track | Start | Length | Start sector | End sector
---------------------------------------------------------
1 | 0:00.00 | 7:37.55 | 0 | 34329
2 | 7:37.55 | 5:33.70 | 34330 | 59374
3 | 13:11.50 | 6:13.30 | 59375 | 87379
4 | 19:25.05 | 5:54.55 | 87380 | 113984
5 | 25:19.60 | 9:39.12 | 113985 | 157421
6 | 34:58.72 | 7:13.58 | 157422 | 189954
7 | 42:12.55 | 3:56.40 | 189955 | 207694
8 | 46:09.20 | 7:27.55 | 207695 | 241274
9 | 53:37.00 | 5:04.12 | 241275 | 264086
10 | 58:41.12 | 5:25.03 | 264087 | 288464
11 | 64:06.15 | 9:51.40 | 288465 | 332829
Range status and errors
Selected range
Filename C:Terumasa Hino - THE BEST.ape
Peak level 100.0 %
Range quality 100.0 %
Copy CRC 42BDF13F
Copy OK
No errors occurred
End of status report
Обложки есть. Благодарности за релиз - JamesBrown (hqshare).
11:24
760
Нет комментариев. Ваш будет первым!