Поиск

(Fusion / Hard Bop) Terumasa Hino - Taro's Mood (2 CD) - 1973, FLAC (image+.cue), lossless

(Fusion / Hard Bop) Terumasa Hino - Taro's Mood (2 CD) - 1973, FLAC (image+.cue), lossless
Terumasa Hino - Taro's Mood (2 CD)
Жанр: Fusion / Hard Bop
Год выпуска диска: 1973
Производитель диска: Enja Records, Germany
Аудио кодек: FLAC
Тип рипа: image+.cue
Битрейт аудио: lossless
Продолжительность: 65:09 + 28:18
Источник: Оригинальный диск
Трэклист:
CD 1
1. Alone, Alone and Alone 14:15
2. Taro’s Mood 12:46
3. Black Daffodil 12:32
4. Predawn 25:32
 
CD 1 - EAC log
Exact Audio Copy V0.99 prebeta 4 from 23. January 2008
EAC extraction logfile from 16. October 2009, 2:13
Teromasa Hino / Taro's Mood
Used drive : YAMAHA CRW-F1E Adapter: 4 ID: 0
Read mode : Secure
Utilize accurate stream : Yes
Defeat audio cache : Yes
Make use of C2 pointers : No
Read offset correction : 733
Overread into Lead-In and Lead-Out : No
Fill up missing offset samples with silence : Yes
Delete leading and trailing silent blocks : No
Null samples used in CRC calculations : Yes
Used interface : Native Win32 interface for Win NT & 2000
Used output format : Internal WAV Routines
Sample format : 44.100 Hz; 16 Bit; Stereo
TOC of the extracted CD
Track | Start | Length | Start sector | End sector
---------------------------------------------------------
1 | 0:00.00 | 14:16.61 | 0 | 64260
2 | 14:16.61 | 12:46.69 | 64261 | 121779
3 | 27:03.55 | 12:33.18 | 121780 | 178272
4 | 39:36.73 | 25:32.37 | 178273 | 293209
Range status and errors
Selected range
Filename D:\!mTorrent razdachi\Terumasa Hino_Taro Mood\CD1\Teromasa Hino - Taro's Mood.wav
Peak level 97.8 %
Range quality 100.0 %
Test CRC 95A8B107
Copy CRC 95A8B107
Copy OK
No errors occurred
AccurateRip summary
Track 1 not present in database
Track 2 not present in database
Track 3 not present in database
Track 4 not present in database
None of the tracks are present in the AccurateRip database
End of status report
CD 2
1. Stella by Starlight 7:45
2. Cycle Circle 13:54
3. Lullaby 6:34
 
CD 2 - EAC log
Exact Audio Copy V0.99 prebeta 4 from 23. January 2008
EAC extraction logfile from 16. October 2009, 2:27
Terumasa Hino / Taro's Mood CD2
Used drive : YAMAHA CRW-F1E Adapter: 4 ID: 0
Read mode : Secure
Utilize accurate stream : Yes
Defeat audio cache : Yes
Make use of C2 pointers : No
Read offset correction : 733
Overread into Lead-In and Lead-Out : No
Fill up missing offset samples with silence : Yes
Delete leading and trailing silent blocks : No
Null samples used in CRC calculations : Yes
Used interface : Native Win32 interface for Win NT & 2000
Used output format : Internal WAV Routines
Sample format : 44.100 Hz; 16 Bit; Stereo
TOC of the extracted CD
Track | Start | Length | Start sector | End sector
---------------------------------------------------------
1 | 0:00.00 | 7:47.12 | 0 | 35036
2 | 7:47.12 | 13:56.38 | 35037 | 97774
3 | 21:43.50 | 6:34.44 | 97775 | 127368
Range status and errors
Selected range
Filename D:\!mTorrent razdachi\Terumasa Hino_Taro Mood\CD2\Terumasa Hino - Taro's Mood CD2.wav
Peak level 99.2 %
Range quality 100.0 %
Test CRC 8376C121
Copy CRC 8376C121
Copy OK
No errors occurred
AccurateRip summary
Track 1 not present in database
Track 2 not present in database
Track 3 not present in database
None of the tracks are present in the AccurateRip database
End of status report
Доп. информация:
Terumasa Hino – trumpet
Mikio Masuda – piano
Yoshio Ikeda – bass
Motohiko Hino – drums
Yuji Imamura – percussion
Мини-биография:
 
Мини-биография
Terumasa Hino
(b. Tokyo, Japan 25.10.42)
Превосходный трубач и флюгельгорнист, испытавший влияние Фрэдди Хаббарда и Miles Davis, Terusama Hino (Тэрумаса Хино) является одним из ведущих джазовых музыкантов Японии. Будучи профессионалом с 1955 года, Terusama Hino стал известен в США лишь с 70-х годов — благодаря своим записям для Enia. (Правда, некоторые его альбомы могли попасть к американским джазфэнам и благодаря таким лэйблам, как Catalyst, Inner City и Blue Note.) В 1975 году Terusama Hino переехал в США, где он работал с Гилом Эвансом, Джеки МакЛином, Дэйвом Либмэном и Элвином Джонсом. С начала же 80-х годах Хино жил преимущественно в Японии, записываясь в весьма отличных друг от друга стилях — от straight-ahead до фьюжн. (c)st52.narod.ru
Более подробно (на английском)
Мои раздачи дисков лейбла ENJA (24bit master edition):
- Terumasa Hino - Taro's Mood (1973)
- Frank Tusa - Father Time (1975)
- Mal Waldron - Moods (1978)
- Eric Dolphy - Stockholm Sessions (1979)
07:48
812
Нет комментариев. Ваш будет первым!