Поиск

(Fusion, Hard Bop) Terumasa Hino - Hip Seagull - 1977, APE (image+.cue) lossless

(Fusion, Hard Bop) Terumasa Hino - Hip Seagull - 1977, APE (image+.cue) lossless
Terumasa Hino - Hip Seagull
Жанр: Fusion, Hard Bop
Страна-производитель диска: Япония
Год издания диска: 1990
Издатель (лейбл): Victor-Japan
Номер по каталогу: VICJ-23023
Аудио кодек: APE (*.ape)
Тип рипа: image+.cue
Битрейт аудио: lossless
Продолжительность: 37:14
Источник (релизер): barin99 (nnm)
Наличие сканов в содержимом раздачи: да
Треклист:
01. Hip Seagull (Hino) - 16:06
02. This Planet Is Ours (Whitaker) - 6:55
03. Fall (Shorter) - 6:31
04. Life Trip (Houston) - 7:35
Состав:
Terumasa Hino - trumpet
Kohsuke Mine - tenor saxophone, soprano saxophone
John Scofield - guitar
Mikio Masuda - acoustic piano, Fender Rhodes piano
Clint Houston - acoustic bass, Fender bass
Motohiko Hino - drums (#1)
George Ohtsuka - drums (#2-4)
M'tume - congas, percussion, voice
Kimiko Kasai - vocal (#3)
Tawatha - vocal (#2)
Recorded August 10-11, 1977 at Victor Studios, Tokyo and December 15, 1977 at Sound Ideas Studios, New York.
 
Лог создания рипа
Exact Audio Copy V0.99 prebeta 5 from 4. May 2009
EAC extraction logfile from 22. April 2010, 18:08
Terumasa Hino / Hip Seagull
Used drive : TSSTcorpDVD+-RW TS-U633A Adapter: 0 ID: 1
Read mode : Secure
Utilize accurate stream : Yes
Defeat audio cache : Yes
Make use of C2 pointers : No
Read offset correction : 6
Overread into Lead-In and Lead-Out : No
Fill up missing offset samples with silence : Yes
Delete leading and trailing silent blocks : No
Null samples used in CRC calculations : Yes
Used interface : Native Win32 interface for Win NT & 2000
Used output format : Internal WAV Routines
Sample format : 44.100 Hz; 16 Bit; Stereo
TOC of the extracted CD
Track | Start | Length | Start sector | End sector
---------------------------------------------------------
1 | 0:00.37 | 16:07.00 | 37 | 72561
2 | 16:07.37 | 6:57.05 | 72562 | 103841
3 | 23:04.42 | 6:31.25 | 103842 | 133191
4 | 29:35.67 | 7:38.58 | 133192 | 167599
Range status and errors
Selected range
Filename C:\_Arc\EAC_Out\Terumasa Hino - Hip Seagull\Terumasa Hino - Hip Seagull.wav
Peak level 100.0 %
Range quality 100.0 %
Copy CRC DB0454A0
Copy OK
No errors occurred
AccurateRip summary
Track 1 not present in database
Track 2 not present in database
Track 3 not present in database
Track 4 not present in database
None of the tracks are present in the AccurateRip database
End of status report
 
Содержание индексной карты (.CUE)
REM GENRE Fusion
REM DATE 1977
REM DISCID 4208BA04
REM COMMENT "ExactAudioCopy v0.99pb5"
PERFORMER "Terumasa Hino"
TITLE "Hip Seagull"
FILE "Terumasa Hino - Hip Seagull.wav" WAVE
TRACK 01 AUDIO
TITLE "Hip Seagull"
PERFORMER "Terumasa Hino"
INDEX 00 00:00:00
INDEX 01 00:00:37
TRACK 02 AUDIO
TITLE "This Planet Is Ours"
PERFORMER "Terumasa Hino"
INDEX 00 16:06:42
INDEX 01 16:07:37
TRACK 03 AUDIO
TITLE "Fall"
PERFORMER "Terumasa Hino"
INDEX 00 23:03:24
INDEX 01 23:04:42
TRACK 04 AUDIO
TITLE "Life Trip"
PERFORMER "Terumasa Hino"
INDEX 01 29:35:67
04:34
802
Нет комментариев. Ваш будет первым!