Поиск

(Fusion, Hard Bop) [CD] Terumasa Hino - Live In Concert (1975) - 2015, FLAC (tracks+.cue), lossless

(Fusion, Hard Bop) [CD] Terumasa Hino - Live In Concert (1975) - 2015, FLAC (tracks+.cue), lossless
Terumasa Hino - Live In Concert (1975) Жанр: Fusion, Hard Bop
Носитель: CD
Страна-производитель диска (релиза): Japan
Год издания: 2015
Издатель (лейбл): East Wind Music/Universal Japan
Номер по каталогу: UCCJ-9146
Аудиокодек: FLAC (*.flac)
Тип рипа: tracks+.cue
Битрейт аудио: lossless
Продолжительность: 46:18
Rip by ruskaval
Наличие сканов в содержимом раздачи: да
Треклист:
01. Logical Mystery (23:43)
02. In The Darkness (11:28)
03. 'Round About Midnight (11:07)
Personnel:
Terumasa Hino - tp, flgn
Hideo Miyata - ts
Fumio Itabashi - el-p
Tsutomu Okada - b
Motohiko Hino - d
Sadao Watanabe - as
Shigeharu Mukai - tb
Kiyoshi Sugimoto - g
Akira Okazawa - el-b
Masahiko Togashi - perc
Yuhji Imamura - cga
 
 
Лог создания рипа
Exact Audio Copy V1.1 from 23. June 2015
EAC extraction logfile from 13. September 2015, 11:35
Terumasa Hino / Live In Concert
Used drive : TSSTcorpCDDVDW SE-208DB Adapter: 7 ID: 0
Read mode : Secure
Utilize accurate stream : Yes
Defeat audio cache : Yes
Make use of C2 pointers : No
Read offset correction : 6
Overread into Lead-In and Lead-Out : No
Fill up missing offset samples with silence : Yes
Delete leading and trailing silent blocks : No
Null samples used in CRC calculations : Yes
Used interface : Installed external ASPI interface
Gap handling : Appended to previous track
Used output format : User Defined Encoder
Selected bitrate : 1024 kBit/s
Quality : High
Add ID3 tag : No
Command line compressor : C:\Program Files (x86)\FLAC Frontend\tools\flac.exe
Additional command line options : -8 -V -T "ARTIST=%artist%" -T "TITLE=%title%" -T "ALBUM=%albumtitle%" -T "DATE=%year%" -T "TRACKNUMBER=%tracknr%" -T "TOTALTRACKS=%numtracks%" -T "GENRE=%genre%" -T "ALBUMARTIST=%albumartist%" -T "ALBUM ARTIST=%albumartist%" -T "COMMENT=EAC Secure Mode, Test & Copy, AccurateRip, FLAC -8" %source%
TOC of the extracted CD
Track | Start | Length | Start sector | End sector
---------------------------------------------------------
1 | 0:00.00 | 23:42.60 | 0 | 106709
2 | 23:42.60 | 11:28.17 | 106710 | 158326
3 | 35:11.02 | 11:07.20 | 158327 | 208371
Track 1
Filename M:\_EAC\Terumasa Hino - Live In Concert (1975) [FLAC] {2015 DSD Japan East Wind Masters Collection 1000}\01 - Logical Mystery.wav
Pre-gap length 0:00:02.00
Peak level 100.0 %
Extraction speed 1.6 X
Track quality 100.0 %
Test CRC EA0F2C1C
Copy CRC EA0F2C1C
Track not present in AccurateRip database
Copy OK
Track 2
Filename M:\_EAC\Terumasa Hino - Live In Concert (1975) [FLAC] {2015 DSD Japan East Wind Masters Collection 1000}\02 - In The Darkness.wav
Pre-gap length 0:00:00.42
Peak level 100.0 %
Extraction speed 1.9 X
Track quality 99.9 %
Test CRC 2D04E7F0
Copy CRC 2D04E7F0
Track not present in AccurateRip database
Copy OK
Track 3
Filename M:\_EAC\Terumasa Hino - Live In Concert (1975) [FLAC] {2015 DSD Japan East Wind Masters Collection 1000}\03 - 'Round About Midnight.wav
Peak level 100.0 %
Extraction speed 2.3 X
Track quality 100.0 %
Test CRC 620C2C35
Copy CRC 620C2C35
Track not present in AccurateRip database
Copy OK
None of the tracks are present in the AccurateRip database
No errors occurred
End of status report
==== Log checksum 4973EDEA9A8A35054AA89EC76A03696D7C72F09745E9878A6F3087657D8AE32C ====
 
Содержание индексной карты (.CUE)
REM GENRE Jazz
REM DATE 1975
REM DISCID 140ADA03
REM COMMENT "ExactAudioCopy v1.1"
PERFORMER "Terumasa Hino"
TITLE "Live In Concert"
FILE "01 - Logical Mystery.wav" WAVE
TRACK 01 AUDIO
TITLE "Logical Mystery"
PERFORMER "Terumasa Hino"
INDEX 01 00:00:00
TRACK 02 AUDIO
TITLE "In The Darkness"
PERFORMER "Terumasa Hino"
INDEX 00 23:42:18
FILE "02 - In The Darkness.wav" WAVE
INDEX 01 00:00:00
FILE "03 - 'Round About Midnight.wav" WAVE
TRACK 03 AUDIO
TITLE "'Round About Midnight"
PERFORMER "Terumasa Hino"
INDEX 01 00:00:00
18:02
829
Нет комментариев. Ваш будет первым!