Поиск

(Fusion, Hard Bop) [CD] Terumasa Hino - D.N.A (DNA) - 2001 (Japan Edition), FLAC (tracks+.cue), lossless

(Fusion, Hard Bop) [CD] Terumasa Hino - D.N.A (DNA) - 2001 (Japan Edition), FLAC (tracks+.cue), lossless
Terumasa Hino - D.N.A
Жанр: Fusion, Hard Bop
Носитель: CD
Страна-производитель диска: Япония
Год издания: 2001
Издатель (лейбл): Sony Music Entertainment
Номер по каталогу: SRCS 2470
Аудиокодек: FLAC (*.flac)
Тип рипа: tracks+.cue
Битрейт аудио: lossless
Продолжительность: 59:44
Источник (релизер): hrmaniaman (what)
Наличие сканов в содержимом раздачи: нет
Треклист:
01. Black Jack (Hino) - 5:14
02. It's There (Hino) - 6:16
03. Bella Notte (Burke-Lee) - 5:46
04. The More I See You (Warren-Gordon) - 4:46
05. Dr. U (Hino) - 5:57
06. Stardust (Carmichael-Parish) - 5:24
07. Don't Do It (Hino) - 7:04
08. Lani (Hino) - 6:21
09. Internet (Hino) - 7:36
10. Some Day (You'll Be Sorry) (Armstrong) - 5:20
Состав:
Terumasa Hino - trumpet
Sir Roland Hanna - piano
Ron Carter - bass
Jack DeJohnette - drums
 
Лог создания рипа
Exact Audio Copy V1.0 beta 3 from 29. August 2011
EAC extraction logfile from 26. October 2014, 0:22
Terumasa Hino / DNA
Used drive : HL-DT-STBDDVDRW CA10N Adapter: 0 ID: 2
Read mode : Secure
Utilize accurate stream : Yes
Defeat audio cache : Yes
Make use of C2 pointers : No
Read offset correction : 667
Overread into Lead-In and Lead-Out : No
Fill up missing offset samples with silence : Yes
Delete leading and trailing silent blocks : No
Null samples used in CRC calculations : Yes
Used interface : Native Win32 interface for Win NT & 2000
Gap handling : Appended to previous track
Used output format : User Defined Encoder
Selected bitrate : 1024 kBit/s
Quality : High
Add ID3 tag : No
Command line compressor : C:\Program Files (x86)\Exact Audio Copy\FLAC\FLAC.EXE
Additional command line options : -8 -V -T "ARTIST=%artist%" -T "TITLE=%title%" -T "ALBUM=%albumtitle%" -T "DATE=%year%" -T "TRACKNUMBER=%tracknr%" -T "GENRE=%genre%" -T "PERFORMER=%albuminterpret%" -T "COMPOSER=%composer%" %haslyrics%--tag-from-file=LYRICS="%lyricsfile%"%haslyrics% -T "ALBUMARTIST=%albumartist%" -T "DISCNUMBER=%cdnumber%" -T "TOTALDISCS=%totalcds%" -T "TOTALTRACKS=%numtracks%" -T "COMMENT=%comment%" %source% -o %dest%
TOC of the extracted CD
Track | Start | Length | Start sector | End sector
---------------------------------------------------------
1 | 0:00.00 | 5:14.32 | 0 | 23581
2 | 5:14.32 | 6:16.15 | 23582 | 51796
3 | 11:30.47 | 5:45.38 | 51797 | 77709
4 | 17:16.10 | 4:45.65 | 77710 | 99149
5 | 22:02.00 | 5:56.60 | 99150 | 125909
6 | 27:58.60 | 5:24.02 | 125910 | 150211
7 | 33:22.62 | 7:03.50 | 150212 | 181986
8 | 40:26.37 | 6:21.28 | 181987 | 210589
9 | 46:47.65 | 7:35.55 | 210590 | 244769
10 | 54:23.45 | 5:20.07 | 244770 | 268776
Track 1
Filename Z:\EAC Rips\Terumasa Hino\DNA\01 - Black Jack.wav
Pre-gap length 0:00:02.00
Peak level 99.4 %
Extraction speed 2.8 X
Track quality 100.0 %
Test CRC 9E688018
Copy CRC 9E688018
Accurately ripped (confidence 1) [A19D8F64] (AR v2)
Copy OK
Track 2
Filename Z:\EAC Rips\Terumasa Hino\DNA\02 - It's There.wav
Pre-gap length 0:00:01.70
Peak level 99.4 %
Extraction speed 3.1 X
Track quality 100.0 %
Test CRC F12712EC
Copy CRC F12712EC
Accurately ripped (confidence 1) [E4DCC5CF] (AR v2)
Copy OK
Track 3
Filename Z:\EAC Rips\Terumasa Hino\DNA\03 - Bella Notte.wav
Pre-gap length 0:00:01.72
Peak level 99.4 %
Extraction speed 3.3 X
Track quality 100.0 %
Test CRC 90A1B980
Copy CRC 90A1B980
Accurately ripped (confidence 1) [1E0C267A] (AR v2)
Copy OK
Track 4
Filename Z:\EAC Rips\Terumasa Hino\DNA\04 - The More I See You.wav
Pre-gap length 0:00:01.73
Peak level 99.4 %
Extraction speed 3.1 X
Track quality 99.9 %
Test CRC A56421FF
Copy CRC A56421FF
Accurately ripped (confidence 1) [70B13474] (AR v2)
Copy OK
Track 5
Filename Z:\EAC Rips\Terumasa Hino\DNA\05 - Dr.U.wav
Pre-gap length 0:00:01.08
Peak level 99.4 %
Extraction speed 3.8 X
Track quality 100.0 %
Test CRC 64FBC7EB
Copy CRC 64FBC7EB
Accurately ripped (confidence 1) [F67D2FDD] (AR v2)
Copy OK
Track 6
Filename Z:\EAC Rips\Terumasa Hino\DNA\06 - Startdust.wav
Pre-gap length 0:00:01.70
Peak level 99.3 %
Extraction speed 3.2 X
Track quality 99.9 %
Test CRC B6426276
Copy CRC B6426276
Accurately ripped (confidence 1) [498814CE] (AR v2)
Copy OK
Track 7
Filename Z:\EAC Rips\Terumasa Hino\DNA\07 - Don't Do It.wav
Pre-gap length 0:00:01.45
Peak level 99.4 %
Extraction speed 4.4 X
Track quality 100.0 %
Test CRC E4246586
Copy CRC E4246586
Accurately ripped (confidence 1) [FB130AF4] (AR v2)
Copy OK
Track 8
Filename Z:\EAC Rips\Terumasa Hino\DNA\08 - Lani.wav
Pre-gap length 0:00:01.32
Peak level 99.4 %
Extraction speed 4.5 X
Track quality 100.0 %
Test CRC 2561B256
Copy CRC 2561B256
Accurately ripped (confidence 1) [C1600272] (AR v2)
Copy OK
Track 9
Filename Z:\EAC Rips\Terumasa Hino\DNA\09 - Internet.wav
Pre-gap length 0:00:01.48
Peak level 99.4 %
Extraction speed 4.7 X
Track quality 100.0 %
Test CRC 3DEACABF
Copy CRC 3DEACABF
Accurately ripped (confidence 1) [E8B1C6CB] (AR v2)
Copy OK
Track 10
Filename Z:\EAC Rips\Terumasa Hino\DNA\10 - Some Day(You'll Be Sorry).wav
Pre-gap length 0:00:01.33
Peak level 99.3 %
Extraction speed 4.7 X
Track quality 100.0 %
Test CRC 09B25C19
Copy CRC 09B25C19
Accurately ripped (confidence 1) [FDF2D766] (AR v2)
Copy OK
All tracks accurately ripped
No errors occurred
End of status report
---- CUETools DB Plugin V2.1.3
[CTDB TOCID: uxTnYzJOkdCSTufYzZ70qx8E1zQ-] disk not present in database, Submit result: uxTnYzJOkdCSTufYzZ70qx8E1zQ- has been uploaded
==== Log checksum 0E2689E2DDD68BE9CA5D8360EC1A3E9A366C3581C9CDB26553615D4C85E316CB ====
 
Содержание индексной карты (.CUE)
REM GENRE Jazz
REM DATE 2001
REM DISCID 7B0DFF0A
REM COMMENT "ExactAudioCopy v1.0b3"
PERFORMER "Terumasa Hino"
TITLE "D.N.A"
FILE "01 - Black Jack.wav" WAVE
TRACK 01 AUDIO
TITLE "Black Jack"
PERFORMER "Terumasa Hino"
ISRC JPSR00101681
INDEX 01 00:00:00
TRACK 02 AUDIO
TITLE "It's There"
PERFORMER "Terumasa Hino"
ISRC JPSR00101682
INDEX 00 05:12:37
FILE "02 - It's There.wav" WAVE
INDEX 01 00:00:00
TRACK 03 AUDIO
TITLE "Bella Notte"
PERFORMER "Terumasa Hino"
ISRC JPSR00101683
INDEX 00 06:14:18
FILE "03 - Bella Notte.wav" WAVE
INDEX 01 00:00:00
TRACK 04 AUDIO
TITLE "The More I See You"
PERFORMER "Terumasa Hino"
ISRC JPSR00101684
INDEX 00 05:43:40
FILE "04 - The More I See You.wav" WAVE
INDEX 01 00:00:00
TRACK 05 AUDIO
TITLE "Dr. U"
PERFORMER "Terumasa Hino"
ISRC JPSR00101685
INDEX 00 04:44:57
FILE "05 - Dr.U.wav" WAVE
INDEX 01 00:00:00
TRACK 06 AUDIO
TITLE "Stardust"
PERFORMER "Terumasa Hino"
ISRC JPSR00101686
INDEX 00 05:54:65
FILE "06 - Stardust.wav" WAVE
INDEX 01 00:00:00
TRACK 07 AUDIO
TITLE "Don't Do It"
PERFORMER "Terumasa Hino"
ISRC JPSR00101687
INDEX 00 05:22:32
FILE "07 - Don't Do It.wav" WAVE
INDEX 01 00:00:00
TRACK 08 AUDIO
TITLE "Lani"
PERFORMER "Terumasa Hino"
ISRC JPSR00101688
INDEX 00 07:02:18
FILE "08 - Lani.wav" WAVE
INDEX 01 00:00:00
TRACK 09 AUDIO
TITLE "Internet"
PERFORMER "Terumasa Hino"
ISRC JPSR00101689
INDEX 00 06:19:55
FILE "09 - Internet.wav" WAVE
INDEX 01 00:00:00
TRACK 10 AUDIO
TITLE "Some Day (You'll Be Sorry)"
PERFORMER "Terumasa Hino"
ISRC JPSR00101690
INDEX 00 07:34:22
FILE "10 - Some Day (You'll Be Sorry).wav" WAVE
INDEX 01 00:00:00
 
Отчет CUETools
[CUETools log; Date: 26.10.2014 1:25:55; Version: 2.1.5]
[CTDB TOCID: uxTnYzJOkdCSTufYzZ70qx8E1zQ-] found.
Track | CTDB Status
1 | (1/1) Accurately ripped
2 | (1/1) Accurately ripped
3 | (1/1) Accurately ripped
4 | (1/1) Accurately ripped
5 | (1/1) Accurately ripped
6 | (1/1) Accurately ripped
7 | (1/1) Accurately ripped
8 | (1/1) Accurately ripped
9 | (1/1) Accurately ripped
10 | (1/1) Accurately ripped
[AccurateRip ID: 0015e375-00b09157-7b0dff0a] found.
Track [ CRC | V2 ] Status
01 [397781ea|a19d8f64] (1+1/2) Accurately ripped
02 [b16c521c|e4dcc5cf] (1+1/2) Accurately ripped
03 [2959128d|1e0c267a] (1+1/2) Accurately ripped
04 [3972a040|70b13474] (1+1/2) Accurately ripped
05 [85c0debb|f67d2fdd] (1+1/2) Accurately ripped
06 [94a74931|498814ce] (1+1/2) Accurately ripped
07 [174aa5b8|fb130af4] (1+1/2) Accurately ripped
08 [1d6d9d8a|c1600272] (1+1/2) Accurately ripped
09 [12524d03|e8b1c6cb] (1+1/2) Accurately ripped
10 [9dbf91c4|fdf2d766] (1+1/2) Accurately ripped
Track Peak [ CRC32 ] [W/O NULL] [ LOG ]
-- 99,4 [AD3BD257] [ED55AE63]
01 99,4 [9E688018] [542B422B] CRC32
02 99,4 [F12712EC] [BE15D793] CRC32
03 99,4 [90A1B980] [43E6D911] CRC32
04 99,4 [A56421FF] [317731D5] CRC32
05 99,4 [64FBC7EB] [EA714D37] CRC32
06 99,3 [B6426276] [7D67505E] CRC32
07 99,4 [E4246586] [0B53936D] CRC32
08 99,4 [2561B256] [E4ED47BE] CRC32
09 99,4 [3DEACABF] [5C71977D] CRC32
10 99,3 [09B25C19] [26932C04] CRC32
11:11
795
Нет комментариев. Ваш будет первым!