Поиск

(Fusion, Funk, Jazz) Alain Caron - Live-Caberet De Montreal - Live 5 - 2006, FLAC (tracks + cue), lossless

(Fusion, Funk, Jazz) Alain Caron - Live-Caberet De Montreal - Live 5 - 2006, FLAC (tracks + cue), lossless
Треклист:
Alain Caron - Live-Caberet De Montreal - Live 5 (Double CD) (2006)
Страна: Canada
Жанр: Fusion, Funk, Jazz
Выпущено: Jul 3, 2006
Фирма: Norac
Формат: FLAC (tracks + cue)
Битрейт аудио: lossless
Включает: FLACS, LOG, CUE, TAU - 786 mb
Сканы: Все страницы, вкладыши и диск - 58 mb
Источник: с треккера ... с разрешения оригинального аплоадера
Трэклист:
1. Ocean of Trees - 1:55
2. Double Agent - 10:50
3. Signal - 10:51
4. Ink Illusion - 7:35
5. Show of Hands - 8:18
6. No Left Turn on Tuesday - 7:20
7. Slam the Clown - 9:39
8. Turkey Loose on the Kit - 10:54
9. Baby Step - 14:32
10. Solitude - 7:12
11. Black Paws - 16:16
12. D-Code - 5:19
Об альбоме:
alaincaron.com
cdbaby.com
amazon.com
allmusic.com
Состав:
Alain Caron - Fretless and Fretted Bass
Jean St-Jacques - Keyboards and Malletkat
David Bellemare - Saxophone
Simon Langlois - Drums
Francois Blouin - Keyboards
 
Noncompliant cue
REM GENRE Fusion
REM DATE 2006
REM DISCID 5B0D4007
REM COMMENT "ExactAudioCopy v0.95b3"
PERFORMER "Alain Caron"
TITLE "Live-Caberet De Montreal Cd1"
FILE "01 - Ocean Of Trees.wav" WAVE
TRACK 01 AUDIO
TITLE "Ocean Of Trees"
PERFORMER "Alain Caron"
INDEX 01 00:00:00
FILE "02 - Double Agent.wav" WAVE
TRACK 02 AUDIO
TITLE "Double Agent"
PERFORMER "Alain Caron"
INDEX 01 00:00:00
FILE "03 - Signal.wav" WAVE
TRACK 03 AUDIO
TITLE "Signal"
PERFORMER "Alain Caron"
INDEX 01 00:00:00
FILE "04 - Ink Illusion.wav" WAVE
TRACK 04 AUDIO
TITLE "Ink Illusion"
PERFORMER "Alain Caron"
INDEX 01 00:00:00
TRACK 05 AUDIO
TITLE "Show Of Hands"
PERFORMER "Alain Caron"
INDEX 00 07:34:46
FILE "05 - Show Of Hands.wav" WAVE
INDEX 01 00:00:00
TRACK 06 AUDIO
TITLE "No Left Turn On Tuesdays"
PERFORMER "Alain Caron"
INDEX 00 08:17:72
FILE "06 - No Left Turn On Tuesdays.wav" WAVE
INDEX 01 00:00:00
TRACK 07 AUDIO
TITLE "Slam The Clown"
PERFORMER "Alain Caron"
INDEX 00 07:18:58
FILE "07 - Slam The Clown.wav" WAVE
INDEX 01 00:00:00
REM GENRE Fusion
REM DATE 2006
REM DISCID 4C0CB705
REM COMMENT "ExactAudioCopy v0.95b3"
PERFORMER "Alain Caron"
TITLE "Live-Caberet De Montreal Cd2"
FILE "01 - Turkey Loose On The Kit.wav" WAVE
TRACK 01 AUDIO
TITLE "Turkey Loose On The Kit"
PERFORMER "Alain Caron"
INDEX 01 00:00:00
TRACK 02 AUDIO
TITLE "Baby Steps "
PERFORMER "Alain Caron"
INDEX 00 10:54:32
FILE "02 - Baby Steps.wav" WAVE
INDEX 01 00:00:00
TRACK 03 AUDIO
TITLE "Solitude"
PERFORMER "Alain Caron"
INDEX 00 14:32:14
FILE "03 - Solitude.wav" WAVE
INDEX 01 00:00:00
FILE "04 - Black Paws.wav" WAVE
TRACK 04 AUDIO
TITLE "Black Paws"
PERFORMER "Alain Caron"
INDEX 01 00:00:00
TRACK 05 AUDIO
TITLE "D-Code"
PERFORMER "Alain Caron"
INDEX 00 16:15:29
FILE "05 - D-Code.wav" WAVE
INDEX 01 00:00:00
 
EAC log
EAC extraction logfile from 28. December 2006, 21:15 for CD
Alain Caron / Live-Caberet De Montreal Cd1
Used drive : PLEXTOR DVDR PX-716A Adapter: 1 ID: 0
Read mode : Secure with NO C2, accurate stream, disable cache
Read offset correction : 30
Overread into Lead-In and Lead-Out : No
Used output format : C:\Programmi\Exact Audio Copy\flac-1.1.2-win\bin\flac.exe (User Defined Encoder)
32 kBit/s
Additional command line options : -8 -V %s
Other options :
Fill up missing offset samples with silence : Yes
Delete leading and trailing silent blocks : No
Installed external ASPI interface
Track 1
Filename F:\[MyRip]\01 - Ocean Of Trees.wav
Pre-gap length 0:00:02.00
Peak level 98.8 %
Track quality 99.9 %
Test CRC 59CE4FE9
Copy CRC 59CE4FE9
Copy OK
Track 2
Filename F:\[MyRip]\02 - Double Agent.wav
Peak level 98.8 %
Track quality 100.0 %
Test CRC 4AF66717
Copy CRC 4AF66717
Copy OK
Track 3
Filename F:\[MyRip]\03 - Signal.wav
Peak level 98.8 %
Track quality 100.0 %
Test CRC 10A18AE5
Copy CRC 10A18AE5
Copy OK
Track 4
Filename F:\[MyRip]\04 - Ink Illusion.wav
Peak level 98.8 %
Track quality 100.0 %
Test CRC D87AAAD4
Copy CRC D87AAAD4
Copy OK
Track 5
Filename F:\[MyRip]\05 - Show Of Hands.wav
Pre-gap length 0:00:00.62
Peak level 94.9 %
Track quality 99.9 %
Test CRC 528994DB
Copy CRC 528994DB
Copy OK
Track 6
Filename F:\[MyRip]\06 - No Left Turn On Tuesdays.wav
Pre-gap length 0:00:00.35
Peak level 98.8 %
Track quality 100.0 %
Test CRC 9F1CE7E0
Copy CRC 9F1CE7E0
Copy OK
Track 7
Filename F:\[MyRip]\07 - Slam The Clown.wav
Pre-gap length 0:00:01.25
Peak level 98.8 %
Track quality 100.0 %
Test CRC 6B7728D3
Copy CRC 6B7728D3
Copy OK
No errors occured
End of status report
------------------------------------------------------------
EAC extraction logfile from 28. December 2006, 21:35 for CD
Alain Caron / Live-Caberet De Montreal Cd2
Used drive : PLEXTOR DVDR PX-716A Adapter: 1 ID: 0
Read mode : Secure with NO C2, accurate stream, disable cache
Read offset correction : 30
Overread into Lead-In and Lead-Out : No
Used output format : C:\Programmi\Exact Audio Copy\flac-1.1.2-win\bin\flac.exe (User Defined Encoder)
32 kBit/s
Additional command line options : -8 -V %s
Other options :
Fill up missing offset samples with silence : Yes
Delete leading and trailing silent blocks : No
Installed external ASPI interface
Track 1
Filename F:\[MyRip]\01 - Turkey Loose On The Kit.wav
Pre-gap length 0:00:02.00
Peak level 98.8 %
Track quality 100.0 %
Test CRC 65B67153
Copy CRC 65B67153
Copy OK
Track 2
Filename F:\[MyRip]\02 - Baby Steps.wav
Pre-gap length 0:00:00.35
Peak level 98.8 %
Track quality 100.0 %
Test CRC 1B17470D
Copy CRC 1B17470D
Copy OK
Track 3
Filename F:\[MyRip]\03 - Solitude.wav
Pre-gap length 0:00:00.26
Peak level 91.1 %
Track quality 100.0 %
Test CRC 5505FD07
Copy CRC 5505FD07
Copy OK
Track 4
Filename F:\[MyRip]\04 - Black Paws.wav
Peak level 98.8 %
Track quality 100.0 %
Test CRC CED6A1D7
Copy CRC CED6A1D7
Copy OK
Track 5
Filename F:\[MyRip]\05 - D-Code.wav
Pre-gap length 0:00:00.55
Peak level 98.8 %
Track quality 100.0 %
Test CRC DD5C64AC
Copy CRC DD5C64AC
Copy OK
No errors occured
End of status report
 
TAU log
1759997979 20443628 01 - Ocean Of Trees.wav
2308808793 114763532 02 - Double Agent.wav
4186260066 114996380 03 - Signal.wav
60300885 80339660 04 - Ink Illusion.wav
1872256929 87922508 05 - Show Of Hands.wav
2430866478 77634860 06 - No Left Turn On Tuesdays.wav
3048019288 102293228 07 - Slam The Clown.wav
auCDtect: CD records authenticity detector, version 0.8.2
Copyright (c) 2004 Oleg Berngardt. All rights reserved.
Copyright (c) 2004 Alexander Djourik. All rights reserved.
------------------------------------------------------------
Processing file: [01 - Ocean Of Trees.wav]
------------------------------------------------------------
This track looks like CDDA with probability 100%
------------------------------------------------------------
Processing file: [02 - Double Agent.wav]
------------------------------------------------------------
This track looks like CDDA with probability 100%
------------------------------------------------------------
Processing file: [03 - Signal.wav]
------------------------------------------------------------
This track looks like CDDA with probability 100%
------------------------------------------------------------
Processing file: [04 - Ink Illusion.wav]
------------------------------------------------------------
This track looks like CDDA with probability 100%
------------------------------------------------------------
Processing file: [05 - Show Of Hands.wav]
------------------------------------------------------------
This track looks like CDDA with probability 86%
------------------------------------------------------------
Processing file: [06 - No Left Turn On Tuesdays.wav]
------------------------------------------------------------
This track looks like CDDA with probability 100%
------------------------------------------------------------
Processing file: [07 - Slam The Clown.wav]
------------------------------------------------------------
This track looks like CDDA with probability 100%
------------------------------------------------------------
Final Conclusion:
------------------------------------------------------------
These tracks looks like CDDA with probability 100%
1504309447 115523228 01 - Turkey Loose On The Kit.wav
1280114630 153914924 02 - Baby Steps.wav
3635023295 76315388 03 - Solitude.wav
1365626613 172187612 04 - Black Paws.wav
1066571947 56321036 05 - D-Code.wav
auCDtect: CD records authenticity detector, version 0.8.2
Copyright (c) 2004 Oleg Berngardt. All rights reserved.
Copyright (c) 2004 Alexander Djourik. All rights reserved.
------------------------------------------------------------
Processing file: [01 - Turkey Loose On The Kit.wav]
------------------------------------------------------------
This track looks like CDDA with probability 100%
------------------------------------------------------------
Processing file: [02 - Baby Steps.wav]
------------------------------------------------------------
This track looks like CDDA with probability 100%
------------------------------------------------------------
Processing file: [03 - Solitude.wav]
------------------------------------------------------------
This track looks like CDDA with probability 100%
------------------------------------------------------------
Processing file: [04 - Black Paws.wav]
------------------------------------------------------------
This track looks like CDDA with probability 100%
------------------------------------------------------------
Processing file: [05 - D-Code.wav]
------------------------------------------------------------
This track looks like CDDA with probability 100%
------------------------------------------------------------
Final Conclusion:
------------------------------------------------------------
These tracks looks like CDDA with probability 100%
Я не сидирую все свои раздачи подолгу, только новые (до 3х первых сидов)
Если через месяц вы нашли тут этот альбом без сидов - шлите ПМ, я вернусь
Download available for power users only.
14:45
424
Нет комментариев. Ваш будет первым!