Поиск

(Fusion / Funk) Dave Weckl Band - Live (and very plugged in) 2 CD - 2003, APE (image+.cue), lossless

Треклист:
Dave Weckl Band - Live (and very plugged in) 2 CD
Жанр: Fusion / Funk
Год выпуска диска: 2003
Производитель диска: USA ( SCD2 - 9042 - 2 )
Аудио кодек: APE
Тип рипа: image+.cue
Битрейт аудио: lossless
Продолжительность: 112:12
Трэклист:
CD - 1
01. Wake Up
02. Braziluba
03. Mesmer-Eyes
04. Oasis
05. Crossing Paths
06. Hesitation
07. The Chicken
CD - 2
08. Toby's Blues
09. Just For The Record
10. Rhythm-A-Ning
11. Cultural Concurrence
12. Tiempo De Festival
Доп. информация: Сделал правильный рип с оригинального CD, ввиду заинтересованности людей .
 
Лог EAC CD 1
Exact Audio Copy V0.99 prebeta 4 from 23. January 2008
Отчёт EAC об извлечении, выполненном 25. сентября 2009, 19:43
Dave Weckl Band / Live(and very plugged in) CD 1
Дисковод: Optiarc DVD RW AD-5200S Adapter: 0 ID: 0
Режим чтения : Достоверность
Использование точного потока : Да
Отключение кэша аудио : Да
Использование указателей C2 : Нет
Коррекция смещения при чтении : 48
Способность читать области Lead-in и Lead-out : Нет
Заполнение пропущенных сэмплов тишиной : Да
Удаление блоков с тишиной в начале и конце : Нет
При вычислениях CRC использовались нулевые сэмплы : Да
Интерфейс : Установленный внешний ASPI-интерфейс
Выходной формат : Внутренние WAV-операции
Формат сэмплов : 44.100 Гц; 16 бит; стерео
TOC извлечённого CD
Трек | Старт | Длительность | Начальный сектор | Конечный сектор
---------------------------------------------------------------------
1 | 0:00.00 | 8:05.72 | 0 | 36446
2 | 8:05.72 | 10:41.55 | 36447 | 84576
3 | 18:47.52 | 7:50.35 | 84577 | 119861
4 | 26:38.12 | 8:40.25 | 119862 | 158886
5 | 35:18.37 | 10:45.73 | 158887 | 207334
6 | 46:04.35 | 3:01.40 | 207335 | 220949
7 | 49:06.00 | 10:33.52 | 220950 | 268476
Характеристики диапазона извлечения и сообщения об ошибках
Выбранный диапазон
Имя файла D:\3322\Dave Weckl Band - Live(and very plugged in)\Dave Weckl Band - 2003 - Live(and very plugged in) CD 1\Dave Weckl Band - Live(and very plugged in) CD 1.wav
Пиковый уровень 99.8 %
Качество диапазона 100.0 %
CRC копии F83F99D6
Копирование... OK
Ошибок не произошло
AccurateRip: сводка
Трек 1 точность не определена (достоверность 10) [421C1DE9], AccurateRip вернул [903FF193]
Трек 2 точность не определена (достоверность 10) [C9136712], AccurateRip вернул [33AF85CA]
Трек 3 точность не определена (достоверность 10) [7B4E92CD], AccurateRip вернул [E01C7E00]
Трек 4 точность не определена (достоверность 10) [BFE7F642], AccurateRip вернул [976D9139]
Трек 5 точность не определена (достоверность 10) [137A770A], AccurateRip вернул [1BCC4A67]
Трек 6 точность не определена (достоверность 10) [3D35E924], AccurateRip вернул [4C824C40]
Трек 7 точность не определена (достоверность 10) [F63A9325], AccurateRip вернул [7A2C2A3C]
Ни один трек не прошёл проверки на точность
В вашей базе может быть иной вариант штамповки диска
Конец отчёта
 
Лог EAC CD 2
Exact Audio Copy V0.99 prebeta 4 from 23. January 2008
Отчёт EAC об извлечении, выполненном 26. сентября 2009, 6:35
Dave Weckl Band / Live and very plugged in CD 2
Дисковод: Optiarc DVD RW AD-5200S Adapter: 0 ID: 0
Режим чтения : Достоверность
Использование точного потока : Да
Отключение кэша аудио : Да
Использование указателей C2 : Нет
Коррекция смещения при чтении : 48
Способность читать области Lead-in и Lead-out : Нет
Заполнение пропущенных сэмплов тишиной : Да
Удаление блоков с тишиной в начале и конце : Нет
При вычислениях CRC использовались нулевые сэмплы : Да
Интерфейс : Установленный внешний ASPI-интерфейс
Выходной формат : Внутренние WAV-операции
Формат сэмплов : 44.100 Гц; 16 бит; стерео
TOC извлечённого CD
Трек | Старт | Длительность | Начальный сектор | Конечный сектор
---------------------------------------------------------------------
1 | 0:00.00 | 10:08.27 | 0 | 45626
2 | 10:08.27 | 12:00.55 | 45627 | 99681
3 | 22:09.07 | 10:08.40 | 99682 | 145321
4 | 32:17.47 | 8:04.68 | 145322 | 181689
5 | 40:22.40 | 12:42.52 | 181690 | 238891
Характеристики диапазона извлечения и сообщения об ошибках
Выбранный диапазон
Имя файла D:\3322\Dave Weckl Band -2003 - Live(and very plugged in)\Dave Weckl Band - 2993 - Live (and very plugged in) CD 2\Dave Weckl Band - Live and very plugged in CD 2.wav
Пиковый уровень 98.8 %
Качество диапазона 100.0 %
CRC копии AE7F61B3
Копирование... OK
Ошибок не произошло
AccurateRip: сводка
Трек 1 нет в базе данных
Трек 2 нет в базе данных
Трек 3 нет в базе данных
Трек 4 нет в базе данных
Трек 5 нет в базе данных
Ни одного трека нет в базе AccurateRip
Конец отчёта
 
Лог Чекера CD 1
AUDIOCHECKER v2.0 beta (build 457) - by Dester - opdester@freemail.hu
~~~~~~~~~~~~~~~~~~~~~~~~~~~~~~~~~~
Started at: пятница, 25. 09. 2009. - 21:40.18
1 file found
1 -===- D:\3322\Dave Weckl Band - Live(and very plugged in)\Dave Weckl Band - 2003 - Live(and very plugged in) CD 1\Dave Weckl Band - Live(and very plugged in) CD 1.wav
Conclusion: this track is CDDA with probability 100%
Finished at: пятница, 25. 09. 2009. - 21:46.41 (operation time: 0:06.22)
 
Лог Чекера CD 2
AUDIOCHECKER v2.0 beta (build 457) - by Dester - opdester@freemail.hu
~~~~~~~~~~~~~~~~~~~~~~~~~~~~~~~~~~
Started at: суббота, 26. 09. 2009. - 8:19.10
1 file found
1 -===- D:\3322\Dave Weckl Band -2003 - Live(and very plugged in)\Dave Weckl Band - 2993 - Live (and very plugged in) CD 2\Dave Weckl Band - Live and very plugged in CD 2.wav
Conclusion: this track is CDDA with probability 100%
Finished at: суббота, 26. 09. 2009. - 8:24.38 (operation time: 0:05.27)
Источник - мой рип с оригинального CD , картинки в теме.
Приватный:
Нет (DHT включён)
Размер:
755.61 Мб (792,313,914 байт) » файлов: 16
Участники:
0 раздают, 0 качают (0 участников всего)
Внешние участники:
1 раздают, 0 качают (1 участников всего) [ Обновить ]
For power users only: no seeders - write to support@pro-jazz.com. Для power user: нет сидеров - пишите на support@pro-jazz.com.
07:17
116
Нет комментариев. Ваш будет первым!