Поиск

(Fusion, Ethnic, Traditional Folk) [CD] Kim Duk Soo Samulnori & Red Sun Group - From The Earth, To The Sky - 1997, FLAC (image+.cue), lossless

(Fusion, Ethnic, Traditional Folk) [CD] Kim Duk Soo Samulnori & Red Sun Group - From The Earth, To The Sky - 1997, FLAC (image+.cue), lossless
Kim Duk Soo Samulnori & Red Sun Group / From The Earth, To The Sky
Жанр: Fusion, Ethnic, Traditional Folk
Носитель: CD
Страна-производитель диска (релиза): Korea
Год издания: 1997
Издатель (лейбл): E&E Media, Samsung
Номер по каталогу: SCO-123NAN
Аудиокодек: FLAC (*.flac)
Тип рипа: image+.cue
Битрейт аудио: lossless
Продолжительность: 00:42:08
Источник (релизер): Own CD & Rip
Наличие сканов в содержимом раздачи: да
Треклист:
01. Prologue (Reaching Out)
02. The Road Ahead
03. Burdens Of Life
04. Going Places
05. Dance Of Devotion
06. Another Step To The Sky
07. Round Up
08. Epilogue (The End Is The Beginning)
 
Лог создания рипа
Exact Audio Copy V1.3 from 2. September 2016
EAC extraction logfile from 29. April 2017, 1:04
Kim Duk Soo Samulnori & Red Sun Group / From The Earth, To The Sky
Used drive : HL-DT-STDVDRAM GH24NSB0 Adapter: 1 ID: 1
Read mode : Secure
Utilize accurate stream : Yes
Defeat audio cache : Yes
Make use of C2 pointers : No
Read offset correction : 6
Overread into Lead-In and Lead-Out : No
Fill up missing offset samples with silence : Yes
Delete leading and trailing silent blocks : No
Null samples used in CRC calculations : Yes
Used interface : Native Win32 interface for Win NT & 2000
Used output format : User Defined Encoder
Selected bitrate : 1024 kBit/s
Quality : High
Add ID3 tag : No
Command line compressor : C:\Program Files (x86)\Exact Audio Copy\Flac\flac.exe
Additional command line options : -V -6 %source% -o %dest%
TOC of the extracted CD
Track | Start | Length | Start sector | End sector
---------------------------------------------------------
1 | 0:00.00 | 3:01.30 | 0 | 13604
2 | 3:01.30 | 5:30.66 | 13605 | 38420
3 | 8:32.21 | 8:36.09 | 38421 | 77129
4 | 17:08.30 | 3:06.26 | 77130 | 91105
5 | 20:14.56 | 12:04.21 | 91106 | 145426
6 | 32:19.02 | 3:54.69 | 145427 | 163045
7 | 36:13.71 | 4:57.11 | 163046 | 185331
8 | 41:11.07 | 0:56.45 | 185332 | 189576
Range status and errors
Selected range
Filename D:\WORKING\Kim Duk Soo Samulnori & Red Sun Group - From The Earth, To The Sky.wav
Peak level 100.0 %
Extraction speed 1.7 X
Range quality 100.0 %
Test CRC BCBE7DBE
Copy CRC BCBE7DBE
Copy OK
No errors occurred
AccurateRip summary
Track 1 not present in database
Track 2 not present in database
Track 3 not present in database
Track 4 not present in database
Track 5 not present in database
Track 6 not present in database
Track 7 not present in database
Track 8 not present in database
None of the tracks are present in the AccurateRip database
End of status report
---- CUETools DB Plugin V2.1.6
[CTDB TOCID: UWi6WnQK8WcpHsbQ7spVAUYfuUo-] disk not present in database
Submit result: UWi6WnQK8WcpHsbQ7spVAUYfuUo- has been uploaded
==== Log checksum EB6F196E49E1BFB430D31984CAEA27E4C0E35808608219A7EA6E5B4B9056929E ====
 
Artist
Kim Duk Soo: Changgo
Kang Min Seo: Buk
Kim Bok Man: K'Kwaengwari
Jang Hyun Jin: Ching
Park An Ji: Z'zagsoi
Kim Dong Won: Changgo on track 1, 8
Buk on track 1
Park Hun Kyu: K'Kwaengwari on track 1
Buk on track 8
Wolfgang Puschnig: Alto Saxophone
Rick Iannacone: Electric Guitar
Jamaaladeen Tacuma: Bass Guitar
Linda Sharrock: Vocal
00:32
264
Нет комментариев. Ваш будет первым!