Поиск

(Fusion, Ethnic Jazz, Vocal Jazz, World) [CD] Carmen Souza - Live At Lagny Jazz Festival - 2013, FLAC (tracks+.cue), lossless

(Fusion, Ethnic Jazz, Vocal Jazz, World) [CD] Carmen Souza - Live At Lagny Jazz Festival - 2013, FLAC (tracks+.cue), lossless
Carmen Souza - Live At Lagny Jazz Festival
Жанр: Fusion, Ethnic Jazz, Vocal Jazz, World
Носитель: CD
Год издания: 2013
Издатель (лейбл): Galileo Music
Номер по каталогу: GMC060
Аудиокодек: FLAC (*.flac)
Тип рипа: tracks+.cue
Битрейт аудио: lossless
Продолжительность: 61:45
Источник (релизер): dtromp
Наличие сканов в содержимом раздачи: да
Треклист:
01. Protegid/Manha 1 de Dezembro (5:49)
02. Afri ka (10:53)
03. My Favourite Thing (4:37)
04. Donna Lee (2:53)
05. Koladjazz & Sodade (4:54)
06. 6 on na Tarrafal (3:12)
07. Magia ca tem (6:18)
08. Song For My Father (4:41)
09. Code (8:58)
10. Sous le ciel de Paris (3:34)
11. Sol (3:02)
12. Cabo Verde (2:55)
 
 
Лог создания рипа
Exact Audio Copy V1.0 beta 3 from 29. August 2011
EAC extraction logfile from 3. April 2014, 10:44
Carmen Souza / Live at Lagny Jazz Festival
Used drive : PLEXTOR DVDR PX-860A Adapter: 0 ID: 0
Read mode : Secure
Utilize accurate stream : Yes
Defeat audio cache : Yes
Make use of C2 pointers : No
Read offset correction : 96
Overread into Lead-In and Lead-Out : No
Fill up missing offset samples with silence : Yes
Delete leading and trailing silent blocks : No
Null samples used in CRC calculations : Yes
Used interface : Native Win32 interface for Win NT & 2000
Gap handling : Appended to previous track
Used output format : User Defined Encoder
Selected bitrate : 1024 kBit/s
Quality : High
Add ID3 tag : No
Command line compressor : C:\Program Files\Exact Audio Copy\Flac\flac.exe
Additional command line options : -8 -V -T "ARTIST=%artist%" -T "TITLE=%title%" -T "ALBUM=%albumtitle%" -T "DATE=%year%" -T "TRACKNUMBER=%tracknr%" -T "TOTALTRACKS=%numtracks%" -T "GENRE=%genre%" -T "ALBUMARTIST=%albumartist%" -T "ALBUM ARTIST=%albumartist%" -T "DISCNUMBER=%cdnumber%" -T "TOTALDISCS=%totalcds%" -T "COMMENT=EAC Secure Mode, Test & Copy, AccurateRip, FLAC -8" %source%
TOC of the extracted CD
Track | Start | Length | Start sector | End sector
---------------------------------------------------------
1 | 0:00.00 | 5:49.00 | 0 | 26174
2 | 5:49.00 | 10:53.14 | 26175 | 75163
3 | 16:42.14 | 4:36.52 | 75164 | 95915
4 | 21:18.66 | 2:53.02 | 95916 | 108892
5 | 24:11.68 | 4:54.19 | 108893 | 130961
6 | 29:06.12 | 3:12.14 | 130962 | 145375
7 | 32:18.26 | 6:17.43 | 145376 | 173693
8 | 38:35.69 | 4:41.14 | 173694 | 194782
9 | 43:17.08 | 8:57.58 | 194783 | 235115
10 | 52:14.66 | 3:33.51 | 235116 | 251141
11 | 55:48.42 | 3:01.65 | 251142 | 264781
12 | 58:50.32 | 2:54.44 | 264782 | 277875
Track 1
Filename O:\DL\Carmen Souza - Live at Lagny Jazz Festival (2013) [FLAC]\01 - Protegid-Manha 1 de Dezembro.wav
Pre-gap length 0:00:02.00
Peak level 100.0 %
Extraction speed 4.7 X
Track quality 100.0 %
Test CRC 5C131A5C
Copy CRC 5C131A5C
Track not present in AccurateRip database
Copy OK
Track 2
Filename O:\DL\Carmen Souza - Live at Lagny Jazz Festival (2013) [FLAC]\02 - Afri ka.wav
Pre-gap length 0:00:01.98
Peak level 100.0 %
Extraction speed 5.9 X
Track quality 100.0 %
Test CRC 823D680A
Copy CRC 823D680A
Track not present in AccurateRip database
Copy OK
Track 3
Filename O:\DL\Carmen Souza - Live at Lagny Jazz Festival (2013) [FLAC]\03 - My Favourite Thing.wav
Pre-gap length 0:00:02.00
Peak level 93.5 %
Extraction speed 6.1 X
Track quality 100.0 %
Test CRC 1B53AF77
Copy CRC 1B53AF77
Track not present in AccurateRip database
Copy OK
Track 4
Filename O:\DL\Carmen Souza - Live at Lagny Jazz Festival (2013) [FLAC]\04 - Donna Lee.wav
Pre-gap length 0:00:03.00
Peak level 100.0 %
Extraction speed 6.0 X
Track quality 100.0 %
Test CRC 59068BFA
Copy CRC 59068BFA
Track not present in AccurateRip database
Copy OK
Track 5
Filename O:\DL\Carmen Souza - Live at Lagny Jazz Festival (2013) [FLAC]\05 - Koladjazz & Sodade.wav
Pre-gap length 0:00:01.98
Peak level 90.2 %
Extraction speed 6.7 X
Track quality 100.0 %
Test CRC 2CF71213
Copy CRC 2CF71213
Track not present in AccurateRip database
Copy OK
Track 6
Filename O:\DL\Carmen Souza - Live at Lagny Jazz Festival (2013) [FLAC]\06 - 6 on na Tarrafal.wav
Pre-gap length 0:00:02.98
Peak level 100.0 %
Extraction speed 6.6 X
Track quality 100.0 %
Test CRC 4FE2E99B
Copy CRC 4FE2E99B
Track not present in AccurateRip database
Copy OK
Track 7
Filename O:\DL\Carmen Souza - Live at Lagny Jazz Festival (2013) [FLAC]\07 - Magia ca tem.wav
Pre-gap length 0:00:02.00
Peak level 100.0 %
Extraction speed 7.5 X
Track quality 100.0 %
Test CRC 4CE4FD26
Copy CRC 4CE4FD26
Track not present in AccurateRip database
Copy OK
Track 8
Filename O:\DL\Carmen Souza - Live at Lagny Jazz Festival (2013) [FLAC]\08 - Song For My Father.wav
Pre-gap length 0:00:01.98
Peak level 100.0 %
Extraction speed 6.8 X
Track quality 99.9 %
Test CRC 9056E5DF
Copy CRC 9056E5DF
Track not present in AccurateRip database
Copy OK
Track 9
Filename O:\DL\Carmen Souza - Live at Lagny Jazz Festival (2013) [FLAC]\09 - Code.wav
Pre-gap length 0:00:01.98
Peak level 100.0 %
Extraction speed 8.3 X
Track quality 100.0 %
Test CRC 4C820951
Copy CRC 4C820951
Track not present in AccurateRip database
Copy OK
Track 10
Filename O:\DL\Carmen Souza - Live at Lagny Jazz Festival (2013) [FLAC]\10 - Sous le ciel de Paris.wav
Pre-gap length 0:00:02.00
Peak level 93.3 %
Extraction speed 7.8 X
Track quality 100.0 %
Test CRC 3918C460
Copy CRC 3918C460
Track not present in AccurateRip database
Copy OK
Track 11
Filename O:\DL\Carmen Souza - Live at Lagny Jazz Festival (2013) [FLAC]\11 - Sol.wav
Pre-gap length 0:00:01.98
Peak level 93.3 %
Extraction speed 7.9 X
Track quality 100.0 %
Test CRC 963C4A92
Copy CRC 963C4A92
Track not present in AccurateRip database
Copy OK
Track 12
Filename O:\DL\Carmen Souza - Live at Lagny Jazz Festival (2013) [FLAC]\12 - Cabo Verde.wav
Pre-gap length 0:00:01.98
Peak level 93.3 %
Extraction speed 7.9 X
Track quality 100.0 %
Test CRC C0922D3E
Copy CRC C0922D3E
Track not present in AccurateRip database
Copy OK
None of the tracks are present in the AccurateRip database
No errors occurred
End of status report
---- CUETools DB Plugin V2.1.3
[CTDB TOCID: Q1SmyGn_GXcyY3ZDvD_SsDlDXkU-] disk not present in database, Submit result: Q1SmyGn_GXcyY3ZDvD_SsDlDXkU- has been uploaded
==== Log checksum AF99FA5B03A3B758CA355D57DFBC0B63D7AAFE2E64B386FDF591EC61C2778485 ====
 
Содержание индексной карты (.CUE)
REM GENRE Jazz
REM DATE 2013
REM DISCID 950E790C
REM COMMENT "ExactAudioCopy v1.0b3"
PERFORMER "Carmen Souza"
TITLE "Live at Lagny Jazz Festival"
FILE "01 - Protegid-Manha 1 de Dezembro.wav" WAVE
TRACK 01 AUDIO
TITLE "Protegid/Manha 1 de Dezembro"
PERFORMER "Carmen Souza"
INDEX 01 00:00:00
TRACK 02 AUDIO
TITLE "Afri ka"
PERFORMER "Carmen Souza"
INDEX 00 05:47:01
FILE "02 - Afri ka.wav" WAVE
INDEX 01 00:00:00
TRACK 03 AUDIO
TITLE "My Favourite Thing"
PERFORMER "Carmen Souza"
INDEX 00 10:51:14
FILE "03 - My Favourite Thing.wav" WAVE
INDEX 01 00:00:00
TRACK 04 AUDIO
TITLE "Donna Lee"
PERFORMER "Carmen Souza"
INDEX 00 04:33:52
FILE "04 - Donna Lee.wav" WAVE
INDEX 01 00:00:00
TRACK 05 AUDIO
TITLE "Koladjazz & Sodade"
PERFORMER "Carmen Souza"
INDEX 00 02:51:03
FILE "05 - Koladjazz & Sodade.wav" WAVE
INDEX 01 00:00:00
TRACK 06 AUDIO
TITLE "6 on na Tarrafal"
PERFORMER "Carmen Souza"
INDEX 00 04:51:20
FILE "06 - 6 on na Tarrafal.wav" WAVE
INDEX 01 00:00:00
TRACK 07 AUDIO
TITLE "Magia ca tem"
PERFORMER "Carmen Souza"
INDEX 00 03:10:14
FILE "07 - Magia ca tem.wav" WAVE
INDEX 01 00:00:00
TRACK 08 AUDIO
TITLE "Song For My Father"
PERFORMER "Carmen Souza"
INDEX 00 06:15:44
FILE "08 - Song For My Father.wav" WAVE
INDEX 01 00:00:00
TRACK 09 AUDIO
TITLE "Code"
PERFORMER "Carmen Souza"
INDEX 00 04:39:15
FILE "09 - Code.wav" WAVE
INDEX 01 00:00:00
TRACK 10 AUDIO
TITLE "Sous le ciel de Paris "
PERFORMER "Carmen Souza"
INDEX 00 08:55:58
FILE "10 - Sous le ciel de Paris.wav" WAVE
INDEX 01 00:00:00
TRACK 11 AUDIO
TITLE "Sol"
PERFORMER "Carmen Souza"
INDEX 00 03:31:52
FILE "11 - Sol.wav" WAVE
INDEX 01 00:00:00
TRACK 12 AUDIO
TITLE "Cabo Verde"
PERFORMER "Carmen Souza"
INDEX 00 02:59:66
FILE "12 - Cabo Verde.wav" WAVE
INDEX 01 00:00:00
14:58
690
Нет комментариев. Ваш будет первым!