Поиск

(Fusion, Crossover Jazz) The Brecker Brothers - Score {1968} - 1991, FLAC (tracks+.cue), lossless

(Fusion, Crossover Jazz) The Brecker Brothers - Score {1968} - 1991, FLAC (tracks+.cue), lossless
Треклист:
•The Brecker Brothers - Score {1968}•
Жанр: Fusion, Crossover Jazz
Страна-производитель диска: West-Germany
Год издания: 1991
Издатель (лейбл): Jazz Door
Номер по каталогу: 1211
Аудиокодек: FLAC (*.flac)
Тип рипа: tracks+.cue
Битрейт аудио: lossless
Продолжительность: 00:36:44
Источник (релизер): Рип с диска.
Наличие сканов в содержимом раздачи: да
Треклист:
01. Bangalore [04:34]
02. Score [07:17]
03. Name Game [05:08]
04. Morning Song [04:10]
05. Pipe Dream [04:34]
06. The Vamp [05:18]
07. The Marble Sea [05:41]
Personnel:
Randy Brecker - tp,flh
Michael Brecker - ts
Jerry Dodgion - afl
Larry Coryell - g
Hal Galper - p, el.p
Eddy Gomez - b
Chuck Rainey - fender bass
Mickey Roker - dr
Bernard Purdy - dr
 
Лог создания рипа
Exact Audio Copy V1.0 beta 3 from 29. August 2011
Отчёт EAC об извлечении, выполненном 27. марта 2012, 15:44
The Brecker Brothers / Score
Дисковод: TSSTcorpCDDVDW SH-S223C Adapter: 5 ID: 0
Режим чтения : Достоверность
Использование точного потока : Да
Отключение кэша аудио : Да
Использование указателей C2 : Нет
Коррекция смещения при чтении : 697
Способность читать области Lead-in и Lead-out : Нет
Заполнение пропущенных сэмплов тишиной : Да
Удаление блоков с тишиной в начале и конце : Нет
При вычислениях CRC использовались нулевые сэмплы : Да
Интерфейс : Встроенный Win32-интерфейс для Win NT/2000
Обработка зазоров : Добавлено к предыдущему треку
Выходной формат : Пользовательский кодировщик
Выбранный битрейт : 128 kBit/s
Качество : Высокий
Добавление ID3-тега : Нет
Утилита сжатия : C:\Program Files\Exact Audio Copy\Flac\flac.exe
Дополнительные параметры : -V -8 -T "Genre=%genre%" -T "Artist=%artist%" -T "Title=%title%" -T "Album=%albumtitle%" -T "Date=%year%" -T "Tracknumber=%tracknr%" -T "Comment=%comment%" %source%
TOC извлечённого CD
Трек | Старт | Длительность | Начальный сектор | Конечный сектор
---------------------------------------------------------------------
1 | 0:00.00 | 4:34.02 | 0 | 20551
2 | 4:34.02 | 7:17.43 | 20552 | 53369
3 | 11:51.45 | 5:08.22 | 53370 | 76491
4 | 16:59.67 | 4:10.63 | 76492 | 95304
5 | 21:10.55 | 4:34.12 | 95305 | 115866
6 | 25:44.67 | 5:18.13 | 115867 | 139729
7 | 31:03.05 | 5:41.05 | 139730 | 165309
Трек 1
Имя файла E:\Ozifra\1991.The Brecker Brothers - Score\01. Bangalore.wav
Длина предзазора 0:00:02.00
Пиковый уровень 100.0 %
Скорость извлечения 2.0 X
Качество трека 100.0 %
CRC теста 5C451B51
CRC копии 5C451B51
Точность не определена (достоверность 3) [79D58547], AccurateRip вернул [4FF6A82E] (AR v2)
Копирование... OK
Трек 2
Имя файла E:\Ozifra\1991.The Brecker Brothers - Score\02. Score.wav
Пиковый уровень 100.0 %
Скорость извлечения 2.3 X
Качество трека 99.9 %
CRC теста 55439663
CRC копии 55439663
Точность не определена (достоверность 3) [E6A43D88], AccurateRip вернул [32A7D33A] (AR v2)
Копирование... OK
Трек 3
Имя файла E:\Ozifra\1991.The Brecker Brothers - Score\03. Name Game.wav
Пиковый уровень 89.8 %
Скорость извлечения 2.7 X
Качество трека 100.0 %
CRC теста C7F97803
CRC копии C7F97803
Точность не определена (достоверность 3) [EA9D3162], AccurateRip вернул [1BDD81D1] (AR v2)
Копирование... OK
Трек 4
Имя файла E:\Ozifra\1991.The Brecker Brothers - Score\04. Morning Song.wav
Пиковый уровень 100.0 %
Скорость извлечения 2.8 X
Качество трека 100.0 %
CRC теста 9A31DB66
CRC копии 9A31DB66
Точность не определена (достоверность 3) [1F2F97CC], AccurateRip вернул [B94424A6] (AR v2)
Копирование... OK
Трек 5
Имя файла E:\Ozifra\1991.The Brecker Brothers - Score\05. Pipe Dream.wav
Пиковый уровень 88.1 %
Скорость извлечения 3.0 X
Качество трека 100.0 %
CRC теста 258B0BDA
CRC копии 258B0BDA
Точность не определена (достоверность 3) [B23C2677], AccurateRip вернул [B19B20B9] (AR v2)
Копирование... OK
Трек 6
Имя файла E:\Ozifra\1991.The Brecker Brothers - Score\06. The Vamp.wav
Пиковый уровень 94.8 %
Скорость извлечения 3.3 X
Качество трека 100.0 %
CRC теста CB309B6B
CRC копии CB309B6B
Точность не определена (достоверность 3) [5E597DCC], AccurateRip вернул [8EF9D311] (AR v2)
Копирование... OK
Трек 7
Имя файла E:\Ozifra\1991.The Brecker Brothers - Score\07. The Marble Sea.wav
Пиковый уровень 78.3 %
Скорость извлечения 3.5 X
Качество трека 100.0 %
CRC теста E75C0633
CRC копии E75C0633
Точность не определена (достоверность 2) [8BCC0864], AccurateRip вернул [D849545E] (AR v2)
Копирование... OK
Ни один трек не прошёл проверки на точность
В вашей базе может быть иной вариант штамповки диска
Ошибок не произошло
Конец отчёта
==== Контрольная сумма отчёта 1E0F4668269842FCBF2945449A5F3E6A2D4104DEDB281CCBF08BDA83EFB14272 ====
 
Содержание индексной карты (.CUE)
REM GENRE Jazz
REM DATE 1991
REM DISCID 50089C07
REM COMMENT "ExactAudioCopy v1.0b3"
PERFORMER "The Brecker Brothers"
TITLE "Score"
FILE "01. Bangalore.wav" WAVE
TRACK 01 AUDIO
TITLE "Bangalore"
PERFORMER "The Brecker Brothers"
INDEX 01 00:00:00
FILE "02. Score.wav" WAVE
TRACK 02 AUDIO
TITLE "Score"
PERFORMER "The Brecker Brothers"
INDEX 01 00:00:00
FILE "03. Name Game.wav" WAVE
TRACK 03 AUDIO
TITLE "Name Game"
PERFORMER "The Brecker Brothers"
INDEX 01 00:00:00
FILE "04. Morning Song.wav" WAVE
TRACK 04 AUDIO
TITLE "Morning Song"
PERFORMER "The Brecker Brothers"
INDEX 01 00:00:00
FILE "05. Pipe Dream.wav" WAVE
TRACK 05 AUDIO
TITLE "Pipe Dream"
PERFORMER "The Brecker Brothers"
INDEX 01 00:00:00
FILE "06. The Vamp.wav" WAVE
TRACK 06 AUDIO
TITLE "The Vamp"
PERFORMER "The Brecker Brothers"
INDEX 01 00:00:00
FILE "07. The Marble Sea.wav" WAVE
TRACK 07 AUDIO
TITLE "The Marble Sea"
PERFORMER "The Brecker Brothers"
INDEX 01 00:00:00
13:41
716
Нет комментариев. Ваш будет первым!