Поиск

(Fusion, Crossover Jazz) Dave Weckl Band - Transition - 2000, FLAC (image+.cue), lossless

Треклист:
Dave Weckl Band - Transition
Жанр: Fusion, Crossover Jazz
Год выпуска диска: 2000
Производитель диска: Россия
Аудио кодек: FLAC
Тип рипа: image+.cue
Битрейт аудио: lossless
Продолжительность: 70:19
Трэклист:
1. Wake Up
2. Braziluba
3. Like That
4. Mild Hysteria
5. Group Therapy
6. Passion
7. Crossing Paths
8. Alegria
9. Just For The Record
10. Amanecer
Слстав:
Dave Weckl - Drums, Persussion
Tom Kennedy - Electric Bass
Steve Weingard - Keyboards
Brandodn Fields - Tenor & Soprno Sax, Alto Flute
 
EAC Log
Exact Audio Copy V0.99 prebeta 5 from 4. May 2009
EAC extraction logfile from 17. September 2009, 16:00
Dave Weckl Band / Transition
Used drive : Optiarc DVD RW AD-7543A Adapter: 2 ID: 0
Read mode : Secure
Utilize accurate stream : Yes
Defeat audio cache : Yes
Make use of C2 pointers : No
Read offset correction : 48
Overread into Lead-In and Lead-Out : No
Fill up missing offset samples with silence : Yes
Delete leading and trailing silent blocks : No
Null samples used in CRC calculations : Yes
Used interface : Native Win32 interface for Win NT & 2000
Used output format : Internal WAV Routines
Sample format : 44.100 Hz; 16 Bit; Stereo
TOC of the extracted CD
Track | Start | Length | Start sector | End sector
---------------------------------------------------------
1 | 0:00.00 | 6:51.30 | 0 | 30854
2 | 6:51.30 | 9:52.07 | 30855 | 75261
3 | 16:43.37 | 6:40.55 | 75262 | 105316
4 | 23:24.17 | 6:08.35 | 105317 | 132951
5 | 29:32.52 | 6:51.40 | 132952 | 163816
6 | 36:24.17 | 7:32.70 | 163817 | 197786
7 | 43:57.12 | 7:12.40 | 197787 | 230226
8 | 51:09.52 | 5:34.38 | 230227 | 255314
9 | 56:44.15 | 5:05.17 | 255315 | 278206
10 | 61:49.32 | 8:30.03 | 278207 | 316459
Range status and errors
Selected range
Filename Z:\home\igo\eac\CDImage.wav
Peak level 100.0 %
Range quality 100.0 %
Copy CRC 6AB8B984
Copy OK
No errors occurred
AccurateRip summary
Track 1 cannot be verified as accurate (confidence 10) [EDC844B1], AccurateRip returned [60770EEF]
Track 2 cannot be verified as accurate (confidence 9) [58717AF6], AccurateRip returned [28ED5C02]
Track 3 cannot be verified as accurate (confidence 10) [34E2B012], AccurateRip returned [D57B0A93]
Track 4 cannot be verified as accurate (confidence 9) [7019DD86], AccurateRip returned [05E82ECD]
Track 5 cannot be verified as accurate (confidence 9) [856729D5], AccurateRip returned [42F57A14]
Track 6 cannot be verified as accurate (confidence 9) [1C7B5C3B], AccurateRip returned [83552EE5]
Track 7 cannot be verified as accurate (confidence 9) [76704C12], AccurateRip returned [5774DB96]
Track 8 cannot be verified as accurate (confidence 9) [3203DD60], AccurateRip returned [7E1F80F8]
Track 9 cannot be verified as accurate (confidence 9) [3E9FF928], AccurateRip returned [791F4818]
Track 10 cannot be verified as accurate (confidence 8) [82087A5E], AccurateRip returned [AFA74E9A]
No tracks could be verified as accurate
You may have a different pressing from the one(s) in the database
End of status report
 
auCDtect
auCDtect: CD records authenticity detector, version 0.8.2
Copyright (c) 2004 Oleg Berngardt. All rights reserved.
Copyright (c) 2004 Alexander Djourik. All rights reserved.
------------------------------------------------------------
Processing file: [CDImage.wav]
Detected average hi-boundary frequency: 2.027118e+04 Hz
Detected average lo-boundary frequency: 1.337423e+04 Hz
Detected average hi-cut frequency: 2.183180e+04 Hz
Detected average lo-cut frequency: 1.282701e+04 Hz
Maximum probablis boundary frequency: 2.189100e+04 Hz
Coefficient of nonlinearity of a phase: 1.364671e-01
First order smothness: 3.672460e-01
Second order smothness: 5.985603e-01
------------------------------------------------------------
This track looks like CDDA with probability 100%
------------------------------------------------------------
Final Conclusion:
------------------------------------------------------------
These tracks looks like CDDA with probability 100%
Приватный:
Нет (DHT включён)
Размер:
458.69 Мб (480,968,367 байт) » файлов: 10
Участники:
0 раздают, 0 качают (0 участников всего)
Внешние участники:
2 раздают, 1 качают (3 участников всего) [ Обновить ]
For power users only: no seeders - write to support@pro-jazz.com. Для power user: нет сидеров - пишите на support@pro-jazz.com.
06:39
131
Нет комментариев. Ваш будет первым!