Вы используете незарегистрированную версию компонента "Вкладки"!

Поиск

(Fusion / Contemporary Jazz / Jazz-Rock) Sing Sing Penelope & Andrzej Przybielski - Stirli People - In Jazzga - 2009, FLAC (image+.cue), lossless

(Fusion / Contemporary Jazz / Jazz-Rock) Sing Sing Penelope & Andrzej Przybielski - Stirli People - In Jazzga - 2009, FLAC (image+.cue), lossless
Треклист:
Sing Sing Penelope + Andrzej Przybielski / Stirli People - In Jazzga
Жанр: Fusion / Contemporary Jazz / Jazz-Rock
Страна-производитель диска: Poland
Год издания диска: 2009
Издатель (лейбл): Monotype Records
Номер по каталогу: mono022
Страна: Poland
Аудиокодек: FLAC (*.flac)
Тип рипа: image+.cue
Битрейт аудио: lossless
Продолжительность: 56:36
Источник (релизер): интернет
Наличие сканов в содержимом раздачи: да
Треклист:
1. No, A Reszta Gdzie? [0:26]
2. W Arce [6:19]
3. Stirli People [18:58]
4. Do Krwi [4:18]
5. Goru [9:42]
6. Talkin' Part II [6:07]
7. Hosanna SSP [10:44]
Прослушать Альбом
MySpace
 
Лог создания рипа
Exact Audio Copy V0.99 prebeta 5 from 4. May 2009
EAC extraction logfile from 2. October 2010, 23:38
Sing Sing Penelope + Andrzej Przybielski / Stirli People In Jazzga
Used drive : PLEXTOR DVDR PX-810SA Adapter: 1 ID: 0
Read mode : Secure
Utilize accurate stream : Yes
Defeat audio cache : Yes
Make use of C2 pointers : No
Read offset correction : 48
Overread into Lead-In and Lead-Out : No
Fill up missing offset samples with silence : Yes
Delete leading and trailing silent blocks : No
Null samples used in CRC calculations : Yes
Used interface : Installed external ASPI interface
Used output format : User Defined Encoder
Selected bitrate : 768 kBit/s
Quality : High
Add ID3 tag : No
Command line compressor : E:\Program Files\Exact Audio Copy\FLAC\FLAC.EXE
Additional command line options : --best -V -T "date=%y" -T "genre=%m" %s
TOC of the extracted CD
Track | Start | Length | Start sector | End sector
---------------------------------------------------------
1 | 0:00.00 | 0:26.02 | 0 | 1951
2 | 0:26.02 | 6:19.66 | 1952 | 30442
3 | 6:45.68 | 18:58.06 | 30443 | 115798
4 | 25:43.74 | 4:18.32 | 115799 | 135180
5 | 30:02.31 | 9:42.10 | 135181 | 178840
6 | 39:44.41 | 6:07.17 | 178841 | 206382
7 | 45:51.58 | 10:44.41 | 206383 | 254723
Range status and errors
Selected range
Filename E:\INCOMING\EAC\Sing Sing Penelope + Andrzej Przybielski - Stirli People In Jazzga.wav
Peak level 97.6 %
Range quality 100.0 %
Test CRC 89B03E77
Copy CRC 89B03E77
Copy OK
No errors occurred
End of status report
 
Об альбоме (сборнике)
Живое выступление польской ново-джазовой группы Sing Sing Penelope совместно с легендарным авангардно-джазовым трубачом Анджеем Пшибельским (Andrzej Przybielski) в клубе Jazzga в Лодзи.
Sing Sing Penelope is a Polish "post-jazz" band, established in 2001 by musicians playing in jazz, avant-garde and rock groups. For this album they have trumpeter Andrzej "Major" Przybielski as their guest of honor. The latter is a kind of popular figure in Polish jazz, having played with all kinds of bands, in all kinds of settings, from traditional big band to free and avant-garde jazz, yet without having released any record as a leader. Sing Sing Penelope consists of Tomasz Glazik on saxophone and synthesizer, Wojciech Jachna on trumpet and flugelhorn, Rafal Gorzycki on drums, Daniel Mackiewicz on electric piano, synthesizer, organ and percussion, and Patryk Weclawek on bass. The music is hard to describe. Influences range all over the place, think of splintered sound of the electric Miles mixed with the psychedelia of the early Pink Floyd (the organ! the synth!), joined by the melancholy of Tomasz Stanko (especially on Hosanna SSP), and added to that a freewheeling modern jazz touch, all sweet with a little sharp edge. Clever, inspiring and beautiful music.
 
Состав
Arranged By, Producer – Sing Sing Penelope
Bass – Patryk Weclawek*
Composed By – Andrzej Przybielski (tracks: 1 to 6), Sing Sing Penelope (tracks: 3, 4, 6, 7)
Design [Cover] – Daniel Mackiewicz
Drums, Percussion – Rafal Gorzycki*
Mastered By – Jakub Pacanowski
Mixed By – Jarek Hejman
Photography – Krzysztof Szymanowski
Piano [Electric], Organ, Percussion – Daniel Mackiewicz
Recorded By – Dariusz Piekara (tracks: 1 to 6)
Tenor Saxophone, Baritone Saxophone – Tomasz Glazik
Trumpet – Wojciech Jachna
Trumpet, Flugelhorn, Cornet, Trumpet [Pocket] – Andrzej Przybielski
По всем вопросам пишите личное сообщение пользователю M0p94ok.
17:41
191
Нет комментариев. Ваш будет первым!