Поиск

(Fusion, Contemporary Jazz) [CD] The Dave Weckl Acoustic Band (feat. Makoto Ozone, Tom Kennedy, Gary Meek) - Of the Same Mind - 2014, FLAC (tracks+.cue), lossless

(Fusion, Contemporary Jazz) [CD] The Dave Weckl Acoustic Band (feat. Makoto Ozone, Tom Kennedy, Gary Meek) - Of the Same Mind - 2014, FLAC (tracks+.cue), lossless
Треклист:
The Dave Weckl Acoustic Band - Of the Same Mind
Жанр: Fusion, Contemporary Jazz
Носитель: CD
Страна-производитель диска (релиза): США
Год издания: 2014
Издатель (лейбл): Self-Released
Аудиокодек: FLAC (*.flac)
Тип рипа: tracks+.cue
Битрейт аудио: lossless
Продолжительность: 70:01
Источник (релизер): g1r0 (what)
Наличие сканов в содержимом раздачи: сетевые
Треклист:
01. What Happened to My Good Shoes (Meek) - 8:11
02. Something's Happening (Ozone) - 6:16
03. Songo Mikele (Kennedy) - 9:40
04. Stay Out (Ozone-Kennedy-Weckl) - 8:49
05. Koolz (Kennedy) - 7:11
06. Stella on the Stairs (Meek) - 6:29
07. Pacific Grove Fog (Meek) - 7:24
08. Agua de la Musica (Ozone) - 6:17
09. All Blues (Davis) - 9:44
Состав:
Makoto Ozone - acoustic piano, Fender Rhodes, Hammond B3
Gary Meek - tenor saxophone, soprano saxophone
Dave Weckl - drums, percussion
Tom Kennedy - electric upright bass
Recorded at Sunset Sound, Los Angeles, CA.
 
Лог создания рипа
Exact Audio Copy V1.0 beta 6 from 9. April 2015
EAC extraction logfile from 23. June 2015, 12:45
The Dave Weckl Acoustic Band / Of the Same Mind
Used drive : NECVMWarVMware SATA CD01 Adapter: 1 ID: 0
Read mode : Secure
Utilize accurate stream : Yes
Defeat audio cache : Yes
Make use of C2 pointers : No
Read offset correction : 48
Overread into Lead-In and Lead-Out : No
Fill up missing offset samples with silence : Yes
Delete leading and trailing silent blocks : No
Null samples used in CRC calculations : Yes
Used interface : Native Win32 interface for Win NT & 2000
Gap handling : Appended to previous track
Used output format : User Defined Encoder
Selected bitrate : 1024 kBit/s
Quality : High
Add ID3 tag : No
Command line compressor : C:\Program Files (x86)\Exact Audio Copy\Flac\flac.exe
Additional command line options : -8 -V -T "ARTIST=%artist%" -T "TITLE=%title%" -T "ALBUM=%albumtitle%" -T "DATE=%year%" -T "TRACKNUMBER=%tracknr%" -T "GENRE=%genre%" -T "PERFORMER=%albuminterpret%" -T "COMPOSER=%composer%" %haslyrics%--tag-from-file=LYRICS="%lyricsfile%"%haslyrics% -T "ALBUMARTIST=%albumartist%" -T "DISCNUMBER=%cdnumber%" -T "TOTALDISCS=%totalcds%" -T "TOTALTRACKS=%numtracks%" -T "COMMENT=%comment%" %source% -o %dest%
TOC of the extracted CD
Track | Start | Length | Start sector | End sector
---------------------------------------------------------
1 | 0:00.00 | 8:10.52 | 0 | 36801
2 | 8:10.52 | 6:16.15 | 36802 | 65016
3 | 14:26.67 | 9:40.08 | 65017 | 108524
4 | 24:07.00 | 8:48.65 | 108525 | 148189
5 | 32:55.65 | 7:11.33 | 148190 | 180547
6 | 40:07.23 | 6:29.13 | 180548 | 209735
7 | 46:36.36 | 7:23.51 | 209736 | 243011
8 | 54:00.12 | 6:16.67 | 243012 | 271278
9 | 60:17.04 | 9:44.21 | 271279 | 315099
Track 1
Filename C:\Users\davide\Desktop\Dave Weckl Acoustic Band - Of The Same Mind (2014) [FLAC]\01 - What Happened to My Good Shoes.wav
Pre-gap length 0:00:02.00
Peak level 95.5 %
Extraction speed 2.2 X
Track quality 99.9 %
Test CRC 28DB4B7B
Copy CRC 28DB4B7B
Accurately ripped (confidence 2) [4F767588] (AR v2)
Copy OK
Track 2
Filename C:\Users\davide\Desktop\Dave Weckl Acoustic Band - Of The Same Mind (2014) [FLAC]\02 - Somethings Happening.wav
Peak level 92.8 %
Extraction speed 3.0 X
Track quality 100.0 %
Test CRC 41D6C537
Copy CRC 41D6C537
Accurately ripped (confidence 2) [91D3F957] (AR v2)
Copy OK
Track 3
Filename C:\Users\davide\Desktop\Dave Weckl Acoustic Band - Of The Same Mind (2014) [FLAC]\03 - Songo Mikele.wav
Peak level 93.5 %
Extraction speed 3.5 X
Track quality 100.0 %
Test CRC 6D349477
Copy CRC 6D349477
Accurately ripped (confidence 2) [EFC19B0D] (AR v2)
Copy OK
Track 4
Filename C:\Users\davide\Desktop\Dave Weckl Acoustic Band - Of The Same Mind (2014) [FLAC]\04 - Stay Out.wav
Peak level 91.1 %
Extraction speed 3.2 X
Track quality 99.9 %
Test CRC 19B3AF48
Copy CRC 19B3AF48
Accurately ripped (confidence 2) [D685C91E] (AR v2)
Copy OK
Track 5
Filename C:\Users\davide\Desktop\Dave Weckl Acoustic Band - Of The Same Mind (2014) [FLAC]\05 - Koolz.wav
Peak level 90.0 %
Extraction speed 4.2 X
Track quality 100.0 %
Test CRC 5AA17825
Copy CRC 5AA17825
Accurately ripped (confidence 2) [EBDF0C0A] (AR v2)
Copy OK
Track 6
Filename C:\Users\davide\Desktop\Dave Weckl Acoustic Band - Of The Same Mind (2014) [FLAC]\06 - Stella on the Stairs.wav
Peak level 91.2 %
Extraction speed 4.4 X
Track quality 100.0 %
Test CRC CA116968
Copy CRC CA116968
Accurately ripped (confidence 2) [85002C24] (AR v2)
Copy OK
Track 7
Filename C:\Users\davide\Desktop\Dave Weckl Acoustic Band - Of The Same Mind (2014) [FLAC]\07 - Pacific Grove Fog.wav
Peak level 91.6 %
Extraction speed 4.6 X
Track quality 100.0 %
Test CRC 14288BBB
Copy CRC 14288BBB
Accurately ripped (confidence 2) [FDDCF7F1] (AR v2)
Copy OK
Track 8
Filename C:\Users\davide\Desktop\Dave Weckl Acoustic Band - Of The Same Mind (2014) [FLAC]\08 - Agua de la Musica.wav
Peak level 91.5 %
Extraction speed 4.8 X
Track quality 100.0 %
Test CRC 34A5D122
Copy CRC 34A5D122
Accurately ripped (confidence 2) [A351AFEF] (AR v2)
Copy OK
Track 9
Filename C:\Users\davide\Desktop\Dave Weckl Acoustic Band - Of The Same Mind (2014) [FLAC]\09 - All Blues.wav
Peak level 93.7 %
Extraction speed 5.2 X
Track quality 100.0 %
Test CRC 4CAEAA4C
Copy CRC 4CAEAA4C
Accurately ripped (confidence 2) [0BF7AA34] (AR v2)
Copy OK
All tracks accurately ripped
No errors occurred
End of status report
---- CUETools DB Plugin V2.1.6
[CTDB TOCID: H3ryEbH4FCf64wPVMibLfTpE_fA-] found
Submit result: unrecognized or virtual drive
Track | CTDB Status
1 | (5/5) Accurately ripped
2 | (5/5) Accurately ripped
3 | (5/5) Accurately ripped
4 | (5/5) Accurately ripped
5 | (5/5) Accurately ripped
6 | (5/5) Accurately ripped
7 | (5/5) Accurately ripped
8 | (5/5) Accurately ripped
9 | (5/5) Accurately ripped
==== Log checksum AC21F107FF092F22B20895A227DEC92EA2BE2E80C78B70FDA08C064DEBD3D119 ====
 
Содержание индексной карты (.CUE)
REM GENRE Jazz
REM DATE 2014
REM DISCID 98106909
REM COMMENT "ExactAudioCopy v1.0b6"
PERFORMER "Dave Weckl"
TITLE "Of the Same Mind"
FILE "01 - What Happened to My Good Shoes.wav" WAVE
TRACK 01 AUDIO
TITLE "What Happened to My Good Shoes"
PERFORMER "Dave Weckl"
ISRC QMB7E1400011
INDEX 01 00:00:00
FILE "02 - Something's Happening.wav" WAVE
TRACK 02 AUDIO
TITLE "Something's Happening"
PERFORMER "Dave Weckl"
ISRC QMB7E1400012
INDEX 01 00:00:00
FILE "03 - Songo Mikele.wav" WAVE
TRACK 03 AUDIO
TITLE "Songo Mikele"
PERFORMER "Dave Weckl"
ISRC QMB7E1400013
INDEX 01 00:00:00
FILE "04 - Stay Out.wav" WAVE
TRACK 04 AUDIO
TITLE "Stay Out"
PERFORMER "Dave Weckl"
ISRC QMB7E1400014
INDEX 01 00:00:00
FILE "05 - Koolz.wav" WAVE
TRACK 05 AUDIO
TITLE "Koolz"
PERFORMER "Dave Weckl"
ISRC QMB7E1400015
INDEX 01 00:00:00
FILE "06 - Stella on the Stairs.wav" WAVE
TRACK 06 AUDIO
TITLE "Stella on the Stairs"
PERFORMER "Dave Weckl"
ISRC QMB7E1400016
INDEX 01 00:00:00
FILE "07 - Pacific Grove Fog.wav" WAVE
TRACK 07 AUDIO
TITLE "Pacific Grove Fog"
PERFORMER "Dave Weckl"
ISRC QMB7E1400017
INDEX 01 00:00:00
FILE "08 - Agua de la Musica.wav" WAVE
TRACK 08 AUDIO
TITLE "Agua de la Musica"
PERFORMER "Dave Weckl"
ISRC QMB7E1400018
INDEX 01 00:00:00
FILE "09 - All Blues.wav" WAVE
TRACK 09 AUDIO
TITLE "All Blues"
PERFORMER "Dave Weckl"
ISRC QMB7E1400019
INDEX 01 00:00:00
 
Отчет CUETools
[CUETools log; Date: 23.06.2015 17:41:27; Version: 2.1.5]
[CTDB TOCID: H3ryEbH4FCf64wPVMibLfTpE_fA-] found.
Track | CTDB Status
1 | (5/5) Accurately ripped
2 | (5/5) Accurately ripped
3 | (5/5) Accurately ripped
4 | (5/5) Accurately ripped
5 | (5/5) Accurately ripped
6 | (5/5) Accurately ripped
7 | (5/5) Accurately ripped
8 | (5/5) Accurately ripped
9 | (5/5) Accurately ripped
[AccurateRip ID: 001814e1-00aff5e9-98106909] found.
Track [ CRC | V2 ] Status
01 [880c2879|4f767588] (0+2/2) Accurately ripped
02 [2809cdc3|91d3f957] (0+2/2) Accurately ripped
03 [2ef12d22|efc19b0d] (0+2/2) Accurately ripped
04 [b91c8764|d685c91e] (0+2/2) Accurately ripped
05 [8b510fff|ebdf0c0a] (0+2/2) Accurately ripped
06 [1355d2c0|85002c24] (0+2/2) Accurately ripped
07 [071ed694|fddcf7f1] (0+2/2) Accurately ripped
08 [7b46aa69|a351afef] (0+2/2) Accurately ripped
09 [61b2adf7|0bf7aa34] (0+2/2) Accurately ripped
Track Peak [ CRC32 ] [W/O NULL] [ LOG ]
-- 95,5 [98BF1A8D] [5051969A]
01 95,5 [28DB4B7B] [69F6048D] CRC32
02 92,8 [41D6C537] [1E842A76] CRC32
03 93,5 [6D349477] [65DF9D6B] CRC32
04 91,1 [19B3AF48] [0FE67E50] CRC32
05 90,0 [5AA17825] [025AE28A] CRC32
06 91,2 [CA116968] [09D18288] CRC32
07 91,6 [14288BBB] [97821753] CRC32
08 91,5 [34A5D122] [F5F3F7D8] CRC32
09 93,7 [4CAEAA4C] [98EA8C9F] CRC32
 
Об альбоме (сборнике)
Новая группа Дэйва Вэйкла - это реализация его мечты.
В прошлом году, во время гастролей с Майком Стерном, Дэйв вновь играл с удивительным Макото Озон (их первая встреча была еще в 80-х), который поражал Вэйкла на протяжении всего тура.
На каждом выступлении Майк ненадолго отходил в сторону и давал Дэйву, Макото и Тому Кеннеди импровизировать вместе. Они с радостью пользовались этой возможностью, и результат получался ошеломительным.
Трио получало столько удовольствия от совместной игры, что во время одной такой импровизации, когда Майк собирался вернуться на сцену, Дэйв закричал ему: "Не вмешивайся!" (этот джем дал основу композиции "Stay Out").
Результатом стал дебютный диск, наполненный straight ahead джазом, фанком и латинской музыкой.
-- Александр Лукоянов
Приватный:
Нет (DHT включён)
Размер:
446.70 Мб (468,395,825 байт) » файлов: 19
Участники:
0 раздают, 0 качают (0 участников всего)
Внешние участники:
10 раздают, 3 качают (13 участников всего) [ Обновить ]
For power users only: no seeders - write to support@pro-jazz.com. Для power user: нет сидеров - пишите на support@pro-jazz.com.
16:33
120
Нет комментариев. Ваш будет первым!