Поиск

(Fusion) [CD] Terumasa Hino - Double Rainbow - 1981 (2000 Japan Edition), FLAC (tracks+.cue), lossless

(Fusion) [CD] Terumasa Hino - Double Rainbow - 1981 (2000 Japan Edition), FLAC (tracks+.cue), lossless
Terumasa Hino - Double Rainbow
Жанр: Fusion
Носитель: CD
Страна-производитель диска (релиза): Япония
Год издания: 2000
Издатель (лейбл): SME Records
Номер по каталогу: SRCS 9600
Аудиокодек: FLAC (*.flac)
Тип рипа: tracks+.cue
Битрейт аудио: lossless
Продолжительность: 46:19
Источник (релизер): dotdash (what)
Наличие сканов в содержимом раздачи: да
Треклист:
01. Merry-Go-Round (Kikuchi) - 14:46
02. Cherry Hill Angel (Kikuchi-Hino) - 8:06
03. Yellow Jacket (Hino) - 4:42
04. Miwa Yama (Hino) - 6:21
05. Aboriginal (Hino-Kikuchi) - 12:24
 
Лог создания рипа
X Lossless Decoder version 20151214 (149.1)
XLD extraction logfile from 2016-04-07 01:28:55 +0900
Terumasa Hino / Double Rainbow
Used drive : _NEC DVD_RW ND-3540A (revision 1.01)
Media type : Pressed CD
Ripper mode : XLD Secure Ripper
Disable audio cache : OK for the drive with a cache less than 1375KiB
Make use of C2 pointers : NO
Read offset correction : 48
Max retry count : 20
Gap status : Analyzed, Appended (except HTOA)
TOC of the extracted CD
Track | Start | Length | Start sector | End sector
---------------------------------------------------------
1 | 00:00:00 | 14:46:02 | 0 | 66451
2 | 14:46:02 | 08:06:00 | 66452 | 102901
3 | 22:52:02 | 04:41:43 | 102902 | 124019
4 | 27:33:45 | 06:20:55 | 124020 | 152574
5 | 33:54:25 | 12:24:20 | 152575 | 208394
AccurateRip Summary (DiscID: 0009fc08-002d0718-450ada05)
Track 01 : OK (v2, confidence 2/2)
Track 02 : OK (v2, confidence 2/2)
Track 03 : OK (v2, confidence 2/2)
Track 04 : OK (v2, confidence 2/2)
Track 05 : OK (v2, confidence 2/2)
->All tracks accurately ripped.
All Tracks
Album gain : -5.19 dB
Peak : 1.000000
Statistics
Read error : 0
Jitter error (maybe fixed) : 0
Retry sector count : 0
Damaged sector count : 0
Track 01
Filename : /konwersja/Terumasa Hino - Double Rainbow (1981) [FLAC] (SRCS 9600 SME Records 2000)/01 - Merry-Go-Round.flac
Pre-gap length : 00:02:00
Track gain : -4.12 dB
Peak : 1.000000
CRC32 hash (test run) : 6EE0E3B7
CRC32 hash : 6EE0E3B7
CRC32 hash (skip zero) : 54E427CD
AccurateRip v1 signature : 615034D7
AccurateRip v2 signature : 142A185D
->Accurately ripped (v2, confidence 2/2)
Statistics
Read error : 0
Jitter error (maybe fixed) : 0
Retry sector count : 0
Damaged sector count : 0
Track 02
Filename : /konwersja/Terumasa Hino - Double Rainbow (1981) [FLAC] (SRCS 9600 SME Records 2000)/02 - Cherry Hill Angel.flac
Pre-gap length : 00:01:05
Track gain : -3.00 dB
Peak : 0.999969
CRC32 hash (test run) : DAEFB743
CRC32 hash : DAEFB743
CRC32 hash (skip zero) : 413F62BC
AccurateRip v1 signature : 27717085
AccurateRip v2 signature : 15345902
->Accurately ripped (v2, confidence 2/2)
Statistics
Read error : 0
Jitter error (maybe fixed) : 0
Retry sector count : 0
Damaged sector count : 0
Track 03
Filename : /konwersja/Terumasa Hino - Double Rainbow (1981) [FLAC] (SRCS 9600 SME Records 2000)/03 - Yellow Jacket.flac
Pre-gap length : 00:01:02
Track gain : -5.50 dB
Peak : 1.000000
CRC32 hash (test run) : 4ECF6D0C
CRC32 hash : 4ECF6D0C
CRC32 hash (skip zero) : 8BEC5424
AccurateRip v1 signature : 635396A3
AccurateRip v2 signature : 320CDA8F
->Accurately ripped (v2, confidence 2/2)
Statistics
Read error : 0
Jitter error (maybe fixed) : 0
Retry sector count : 0
Damaged sector count : 0
Track 04
Filename : /konwersja/Terumasa Hino - Double Rainbow (1981) [FLAC] (SRCS 9600 SME Records 2000)/04 - Miwa Yama.flac
Pre-gap length : 00:00:23
Track gain : -3.73 dB
Peak : 1.000000
CRC32 hash (test run) : 0082FCBA
CRC32 hash : 0082FCBA
CRC32 hash (skip zero) : 74A768F0
AccurateRip v1 signature : 8D6D5419
AccurateRip v2 signature : 24DCDF52
->Accurately ripped (v2, confidence 2/2)
Statistics
Read error : 0
Jitter error (maybe fixed) : 0
Retry sector count : 0
Damaged sector count : 0
Track 05
Filename : /konwersja/Terumasa Hino - Double Rainbow (1981) [FLAC] (SRCS 9600 SME Records 2000)/05 - Aboriginal.flac
Pre-gap length : 00:01:10
Track gain : -6.52 dB
Peak : 1.000000
CRC32 hash (test run) : 2AE6DEC3
CRC32 hash : 2AE6DEC3
CRC32 hash (skip zero) : 5FC73E0E
AccurateRip v1 signature : EBA09E0F
AccurateRip v2 signature : A4AC5ACE
->Accurately ripped (v2, confidence 2/2)
Statistics
Read error : 0
Jitter error (maybe fixed) : 0
Retry sector count : 0
Damaged sector count : 0
No errors occurred
End of status report
-----BEGIN XLD SIGNATURE-----
v7iNbwygVzlNy82S.j9BF1JXyvgu6j1f1_ZqN0MjHF6Lg5noOatm1vqHanx5jtEdjx5osbTE7w8l9ILMi3x8KRuk8ImDAa.0a7ANY1i
-----END XLD SIGNATURE-----
 
Содержание индексной карты (.CUE)
TITLE "Double Rainbow"
PERFORMER "Terumasa Hino"
REM GENRE "Jazz"
REM DATE "1981"
REM DISCID 450ADA05
REM REPLAYGAIN_ALBUM_GAIN -5.19 dB
REM REPLAYGAIN_ALBUM_PEAK 1.000000
FILE "01 - Merry-Go-Round.flac" WAVE
TRACK 01 AUDIO
TITLE "Merry-Go-Round"
ISRC JPSR08104920
REM REPLAYGAIN_TRACK_GAIN -4.12 dB
REM REPLAYGAIN_TRACK_PEAK 1.000000
INDEX 01 00:00:00
TRACK 02 AUDIO
TITLE "Cherry Hill Angel"
ISRC JPSR08104930
REM REPLAYGAIN_TRACK_GAIN -3.00 dB
REM REPLAYGAIN_TRACK_PEAK 0.999969
INDEX 00 14:44:72
FILE "02 - Cherry Hill Angel.flac" WAVE
INDEX 01 00:00:00
TRACK 03 AUDIO
TITLE "Yellow Jacket"
ISRC JPSR08104940
REM REPLAYGAIN_TRACK_GAIN -5.50 dB
REM REPLAYGAIN_TRACK_PEAK 1.000000
INDEX 00 08:04:73
FILE "03 - Yellow Jacket.flac" WAVE
INDEX 01 00:00:00
TRACK 04 AUDIO
TITLE "Miwa Yama"
ISRC JPSR08104950
REM REPLAYGAIN_TRACK_GAIN -3.73 dB
REM REPLAYGAIN_TRACK_PEAK 1.000000
INDEX 00 04:41:20
FILE "04 - Miwa Yama.flac" WAVE
INDEX 01 00:00:00
TRACK 05 AUDIO
TITLE "Aboriginal"
ISRC JPSR08104960
REM REPLAYGAIN_TRACK_GAIN -6.52 dB
REM REPLAYGAIN_TRACK_PEAK 1.000000
INDEX 00 06:19:45
FILE "05 - Aboriginal.flac" WAVE
INDEX 01 00:00:00
 
Отчет CUETools
[CUETools log; Date: 25.04.2016 20:49:31; Version: 2.1.5]
[CTDB TOCID: WNHyjCTJAGogvT6CYGIY2.sbv1Q-] found.
Track | CTDB Status
1 | (2/6) Accurately ripped
2 | (2/6) Accurately ripped
3 | (2/6) Accurately ripped
4 | (2/6) Accurately ripped
5 | (2/6) Accurately ripped
[AccurateRip ID: 0009fc08-002d0718-450ada05] found.
Track [ CRC | V2 ] Status
01 [615034d7|142a185d] (0+2/2) Accurately ripped
02 [27717085|15345902] (0+2/2) Accurately ripped
03 [635396a3|320cda8f] (0+2/2) Accurately ripped
04 [8d6d5419|24dcdf52] (0+2/2) Accurately ripped
05 [eba09e0f|a4ac5ace] (0+2/2) Accurately ripped
Track Peak [ CRC32 ] [W/O NULL]
-- 100,0 [DAC1A3B8] [641CF21D]
01 100,0 [6EE0E3B7] [54E427CD]
02 100,0 [DAEFB743] [413F62BC]
03 100,0 [4ECF6D0C] [8BEC5424]
04 100,0 [0082FCBA] [74A768F0]
05 100,0 [2AE6DEC3] [5FC73E0E]
 
Об альбоме (сборнике)
Top piece of Japanese fusion with arrangements by Gil Evans and Masabumi Kikuchi from a stellar line up. Highly Recommended.
Merry Go Round was huge on the dance floor for Paul Murphy back in the day at the Electric Ballroom - a massive hunk of funk anchored by a titanic bass line with chattering guitars and a wall of percussion with soloists taking off in all directions - murdah !!!
Aboriginal is as good but this time 3 acoustic basses twist and turn under more percussion and keyboards with Steve Grossman and Hino blowing madly and then half way through Steve Turre kicks in with digeredoo and conch shells...Rolf Harris it aint!
Yellow Jacket is a more conventional slinky sliding bit of funk and the albums rounded out with a couple of moody atmospheric tunes-Miwa Yama and Cherry Hill Angel.
-- Bacoso
 
Состав
Terumasa Hino - cornet
Steve Grossman - soprano saxophone
Herbie Hancock, Kenny Kirkland, Mark Grey - Fender Rhodes
Masabumi Kikuchi - piano, synthesizer
Butch Campbell, Lou Volpe, David Spinozza, Barry Finnerty, James Mason - guitar
Anthony Jackson, Hassan Jenkins, Herb Bushler - bass
Eddie Gomez, George Mraz, Reggie Workman - double bass
Harvey Mason, Lenny White, Billy Hart - drums
Airto Moreira, Manolo Badrena, Don Alias - percussion
Recorded and mixed at Sound Ideas Studios, New York in February-March, 1981 except Herbie Hancock parts on #1 recorded at The Automatt, San Francisco, CA on February 24, 1981.
00:49
743
Нет комментариев. Ваш будет первым!