Поиск

(Fusion) [CD] Jaco Pastorius - Holiday for Pans (Comprehensive Brand New Edition) (1980-1982) - 2001, FLAC (tracks+.cue), lossless

(Fusion) [CD] Jaco Pastorius - Holiday for Pans (Comprehensive Brand New Edition) (1980-1982) - 2001, FLAC (tracks+.cue), lossless
Треклист:
Jaco Pastorius - Holiday for Pans (Comprehensive Brand New Edition)
Жанр: Fusion
Носитель: CD
Страна-производитель диска (релиза): Япония/EU
Год издания: 2001
Издатель (лейбл): Sound Hills Records
Номер по каталогу: SSCD-8116
Страна исполнителя (группы): США
Аудиокодек: FLAC (*.flac)
Тип рипа: tracks+.cue
Битрейт аудио: lossless
Продолжительность: 43:02
Источник (релизер): fastfood (what)
Наличие сканов в содержимом раздачи: сетевые
Треклист:
01. Holiday for Pans (Rose) - 3:06
02. Good Morning Anya (Pastorius) - 5:22
03. Giant Steps (Coltrane) - 3:39
04. She's Leaving Home (Lennon-McCartney) - 3:37
05. City of Angels (Pastorius) - 5:55
06. Elegant People (Shorter) - 4:21
07. Mysterious Mountain (Hobaness) - 1:33
08. Birth of Island (Parts 1, 2, and 3) (Pastorius) - 13:26
09. Extra Bass Track (Pastorius) - 2:03
 
Лог создания рипа
Exact Audio Copy V1.1 from 23. June 2015
EAC extraction logfile from 20. March 2016, 2:07
Jaco Pastorius / Holiday for Pans (Comprehensive Brand New Edition)
Used drive : PIONEER BD-RW BDR-XD05 Adapter: 1 ID: 2
Read mode : Secure
Utilize accurate stream : Yes
Defeat audio cache : Yes
Make use of C2 pointers : No
Read offset correction : 667
Overread into Lead-In and Lead-Out : No
Fill up missing offset samples with silence : Yes
Delete leading and trailing silent blocks : No
Null samples used in CRC calculations : Yes
Used interface : Native Win32 interface for Win NT & 2000
Gap handling : Appended to previous track
Used output format : User Defined Encoder
Selected bitrate : 1024 kBit/s
Quality : High
Add ID3 tag : No
Command line compressor : C:\Program Files (x86)\Exact Audio Copy\Flac\flac.exe
Additional command line options : -8 -V -T "ARTIST=%artist%" -T "TITLE=%title%" -T "ALBUM=%albumtitle%" -T "DATE=%year%" -T "TRACKNUMBER=%tracknr%" -T "GENRE=%genre%" -T "PERFORMER=%albuminterpret%" -T "COMPOSER=%composer%" %haslyrics%--tag-from-file=LYRICS="%lyricsfile%"%haslyrics% -T "ALBUMARTIST=%albumartist%" -T "DISCNUMBER=%cdnumber%" -T "TOTALDISCS=%totalcds%" -T "TOTALTRACKS=%numtracks%" -T "COMMENT=%comment%" %source% -o %dest%
TOC of the extracted CD
Track | Start | Length | Start sector | End sector
---------------------------------------------------------
1 | 0:00.00 | 3:06.37 | 0 | 13986
2 | 3:06.37 | 5:21.48 | 13987 | 38109
3 | 8:28.10 | 3:38.40 | 38110 | 54499
4 | 12:06.50 | 3:37.17 | 54500 | 70791
5 | 15:43.67 | 5:54.40 | 70792 | 97381
6 | 21:38.32 | 4:21.25 | 97382 | 116981
7 | 25:59.57 | 1:32.38 | 116982 | 123919
8 | 27:32.20 | 13:26.07 | 123920 | 184376
9 | 40:58.27 | 2:02.70 | 184377 | 193596
Track 1
Filename C:\EAC Rips\Jaco Pastorius - Holiday for Pans (1993) [FLAC] {2001}\01 Holiday for Pans.wav
Pre-gap length 0:00:02.00
Peak level 88.1 %
Extraction speed 2.6 X
Track quality 100.0 %
Test CRC B7B42D9C
Copy CRC B7B42D9C
Accurately ripped (confidence 2) [D0B76451] (AR v2)
Copy OK
Track 2
Filename C:\EAC Rips\Jaco Pastorius - Holiday for Pans (1993) [FLAC] {2001}\02 Good Morning Anya.wav
Pre-gap length 0:00:02.40
Peak level 88.1 %
Extraction speed 3.1 X
Track quality 100.0 %
Test CRC 53E40DF3
Copy CRC 53E40DF3
Accurately ripped (confidence 2) [5F3A57D8] (AR v2)
Copy OK
Track 3
Filename C:\EAC Rips\Jaco Pastorius - Holiday for Pans (1993) [FLAC] {2001}\03 Giant Steps.wav
Pre-gap length 0:00:02.40
Peak level 98.8 %
Extraction speed 3.3 X
Track quality 100.0 %
Test CRC C6163AD3
Copy CRC C6163AD3
Accurately ripped (confidence 2) [2849869C] (AR v2)
Copy OK
Track 4
Filename C:\EAC Rips\Jaco Pastorius - Holiday for Pans (1993) [FLAC] {2001}\04 She's Leaving Home.wav
Pre-gap length 0:00:02.40
Peak level 98.8 %
Extraction speed 3.5 X
Track quality 100.0 %
Test CRC E1389439
Copy CRC E1389439
Accurately ripped (confidence 2) [4A7D3556] (AR v2)
Copy OK
Track 5
Filename C:\EAC Rips\Jaco Pastorius - Holiday for Pans (1993) [FLAC] {2001}\05 City of Angels.wav
Pre-gap length 0:00:02.40
Peak level 88.1 %
Extraction speed 3.6 X
Track quality 99.9 %
Test CRC 9C8A1B25
Copy CRC 9C8A1B25
Accurately ripped (confidence 2) [F285D8D9] (AR v2)
Copy OK
Track 6
Filename C:\EAC Rips\Jaco Pastorius - Holiday for Pans (1993) [FLAC] {2001}\06 Elegant People.wav
Pre-gap length 0:00:02.40
Peak level 91.2 %
Extraction speed 4.0 X
Track quality 100.0 %
Test CRC 79A0BD4F
Copy CRC 79A0BD4F
Accurately ripped (confidence 2) [6B1E31A0] (AR v2)
Copy OK
Track 7
Filename C:\EAC Rips\Jaco Pastorius - Holiday for Pans (1993) [FLAC] {2001}\07 Mysterious Mountain.wav
Pre-gap length 0:00:02.40
Peak level 98.8 %
Extraction speed 3.4 X
Track quality 100.0 %
Test CRC D5D2E44E
Copy CRC D5D2E44E
Accurately ripped (confidence 2) [27AC3AC7] (AR v2)
Copy OK
Track 8
Filename C:\EAC Rips\Jaco Pastorius - Holiday for Pans (1993) [FLAC] {2001}\08 Birth of Island (Parts 1, 2, and 3).wav
Pre-gap length 0:00:02.40
Peak level 98.8 %
Extraction speed 4.7 X
Track quality 99.9 %
Test CRC 1850B746
Copy CRC 1850B746
Accurately ripped (confidence 2) [DACEC5FC] (AR v2)
Copy OK
Track 9
Filename C:\EAC Rips\Jaco Pastorius - Holiday for Pans (1993) [FLAC] {2001}\09 Extra Bass Track.wav
Pre-gap length 0:00:02.40
Peak level 98.8 %
Extraction speed 4.1 X
Track quality 100.0 %
Test CRC 042EDC96
Copy CRC 042EDC96
Accurately ripped (confidence 2) [07BF0F1E] (AR v2)
Copy OK
All tracks accurately ripped
No errors occurred
End of status report
---- CUETools DB Plugin V2.1.6
[CTDB TOCID: 5lPOZp7KdoQ0mwbCPI8mmB88hAY-] found
Submit result: 5lPOZp7KdoQ0mwbCPI8mmB88hAY- has been confirmed
Track | CTDB Status
1 | (1/1) Accurately ripped
2 | (1/1) Accurately ripped
3 | (1/1) Accurately ripped
4 | (1/1) Accurately ripped
5 | (1/1) Accurately ripped
6 | (1/1) Accurately ripped
7 | (1/1) Accurately ripped
8 | (1/1) Accurately ripped
9 | (1/1) Accurately ripped
==== Log checksum C0210B66F6F2BDC0001BED43891641128DE74BA53A845C2480785420B4C6DE0B ====
 
Содержание индексной карты (.CUE)
REM GENRE Jazz
REM DATE 2001
REM DISCID 690A1509
REM COMMENT "ExactAudioCopy v1.1"
PERFORMER "Jaco Pastorius"
TITLE "Holiday for Pans (Comprehensive Brand New Edition)"
FILE "01 - Holiday for Pans.wav" WAVE
TRACK 01 AUDIO
TITLE "Holiday for Pans"
PERFORMER "Jaco Pastorius"
INDEX 01 00:00:00
TRACK 02 AUDIO
TITLE "Good Morning Anya"
PERFORMER "Jaco Pastorius"
INDEX 00 03:04:07
FILE "02 - Good Morning Anya.wav" WAVE
INDEX 01 00:00:00
TRACK 03 AUDIO
TITLE "Giant Steps"
PERFORMER "Jaco Pastorius"
INDEX 00 05:19:18
FILE "03 - Giant Steps.wav" WAVE
INDEX 01 00:00:00
TRACK 04 AUDIO
TITLE "She's Leaving Home"
PERFORMER "Jaco Pastorius"
INDEX 00 03:36:10
FILE "04 - She's Leaving Home.wav" WAVE
INDEX 01 00:00:00
TRACK 05 AUDIO
TITLE "City of Angels"
PERFORMER "Jaco Pastorius"
INDEX 00 03:34:62
FILE "05 - City of Angels.wav" WAVE
INDEX 01 00:00:00
TRACK 06 AUDIO
TITLE "Elegant People"
PERFORMER "Jaco Pastorius"
INDEX 00 05:52:10
FILE "06 - Elegant People.wav" WAVE
INDEX 01 00:00:00
TRACK 07 AUDIO
TITLE "Mysterious Mountain"
PERFORMER "Jaco Pastorius"
INDEX 00 04:18:70
FILE "07 - Mysterious Mountain.wav" WAVE
INDEX 01 00:00:00
TRACK 08 AUDIO
TITLE "Birth of Island (Parts 1, 2, and 3)"
PERFORMER "Jaco Pastorius"
INDEX 00 01:30:08
FILE "08 - Birth of Island (Parts 1, 2, and 3).wav" WAVE
INDEX 01 00:00:00
TRACK 09 AUDIO
TITLE "Extra Bass Track"
PERFORMER "Jaco Pastorius"
INDEX 00 13:23:52
FILE "09 - Extra Bass Track.wav" WAVE
INDEX 01 00:00:00
 
Отчет CUETools
[CUETools log; Date: 20.03.2016 23:40:36; Version: 2.1.5]
[CTDB TOCID: 5lPOZp7KdoQ0mwbCPI8mmB88hAY-] found.
Track | CTDB Status
1 | (2/2) Accurately ripped
2 | (2/2) Accurately ripped
3 | (2/2) Accurately ripped
4 | (2/2) Accurately ripped
5 | (2/2) Accurately ripped
6 | (2/2) Accurately ripped
7 | (2/2) Accurately ripped
8 | (2/2) Accurately ripped
9 | (2/2) Accurately ripped
[AccurateRip ID: 000da2cf-00664c1a-690a1509] found.
Track [ CRC | V2 ] Status
01 [d38724aa|d0b76451] (0+2/2) Accurately ripped
02 [dcfc160f|5f3a57d8] (0+2/2) Accurately ripped
03 [c09b5593|2849869c] (0+2/2) Accurately ripped
04 [4ae65694|4a7d3556] (0+2/2) Accurately ripped
05 [9063de5c|f285d8d9] (0+2/2) Accurately ripped
06 [a3fd71ae|6b1e31a0] (0+2/2) Accurately ripped
07 [040b66e4|27ac3ac7] (0+2/2) Accurately ripped
08 [2769ff45|dacec5fc] (0+2/2) Accurately ripped
09 [b1e3fc95|07bf0f1e] (0+2/2) Accurately ripped
Track Peak [ CRC32 ] [W/O NULL] [ LOG ]
-- 98,8 [3241AEDA] [549AADFF]
01 88,1 [B7B42D9C] [F868B072] CRC32
02 88,1 [53E40DF3] [0114E24C] CRC32
03 98,8 [C6163AD3] [AB33B085] CRC32
04 98,8 [E1389439] [7EE49B2F] CRC32
05 88,1 [9C8A1B25] [A0C69F62] CRC32
06 91,2 [79A0BD4F] [25645948] CRC32
07 98,8 [D5D2E44E] [82810CDB] CRC32
08 98,8 [1850B746] [80AE056C] CRC32
09 98,8 [042EDC96] [4D9D1D20] CRC32
 
AllMusic Review by David Ross Smith
Holiday for Pans (steel pans, that is) is Jaco's intended follow-up to his 1981 Word of Mouth release. However, when he presented the demo to Warner Bros. in 1983, they rejected it on the grounds that it was too esoteric and lacked commercial appeal. Recorded between 1980 and 1982, the project is basically a vehicle for steel pans master, Othello Molineaux, Jaco's longtime friend and colleague. Jaco actually takes a backseat on most of the recordings, at least audibly. The material features eight tracks, including three Pastorius originals: "Good Morning Anya," an upbeat, sprightly tune dominated by Wayne Shorter's breezy, atmospheric sax and, of course, steel pans; the CD's highlight, "City of Angels," a full-blown, jazz fusion excursion with excellent piano riffing courtesy of Mike Gerber, harmonica by Toots Thielemans and a peppering of acoustic guitar and violin; and "Birth of Island," a 23-minute session of "free play" which begins with Jaco shouting, "just play," but doesn't really show its teeth until the last 7-8 minutes. "Birth of Island" is grounded in percussion, with a smattering of sax and trombone. Jaco cooks, but not until the piece has nearly ended. While several minutes near the close are quite arresting, the track acts mainly as filler for a very brief and insubstantial project. In 1986, Pastorius remixed four of the tracks, but years later (after his death), Kenny Jackel claimed all engineering responsibilities for the project, stole the master tapes of the recordings and sold them to Super Stop, an Osaka-based distribution company. At some point along the way, Jackel had a friend overdub bass parts on some of the tracks in an attempt to compensate for Jaco's secondary presence on the album. While Holiday for Pans is not a recommended purchase based on the aforementioned circumstances, the CD does contain some great passages.
 
Состав
Jaco Pastorius - bass, bass pan, percussion, keyboards, voice
Wayne Shorter - saxophone
Don Alias - percussion
Othello Molineaux, Leroy Williams - steel drums
Mike Gerber - piano
Toots Thielemans - harmonica
Bobby Eoconomou - drums, percussion
Kenwood Dennard - drums
Ted Lewand - guitar
Peter Graves - trombone
Craig Thayler - violin
Michael Gibbs Orchestra
Recorded at Power Station, KCC Studio, Jingle Studio in New York in 1980-1982.
Приватный:
Нет (DHT включён)
Размер:
240.67 Мб (252,360,464 байт) » файлов: 18
Участники:
0 раздают, 1 качают (1 участников всего)
Внешние участники:
7 раздают, 2 качают (9 участников всего) [ Обновить ]
Скорость:
343.80 Кб/c 0/c
For power users only: no seeders - write to support@pro-jazz.com. Для power user: нет сидеров - пишите на support@pro-jazz.com.
00:12
106
Нет комментариев. Ваш будет первым!