Поиск

(Fusion) [CD] Isao Suzuki Quartet + 2 - Orang-Utan - 1975 (2013 Japan Edition), FLAC (tracks+.cue), lossless

(Fusion) [CD] Isao Suzuki Quartet + 2 - Orang-Utan - 1975 (2013 Japan Edition), FLAC (tracks+.cue), lossless
Треклист:
Isao Suzuki Quartet + 2 - Orang-Utan
Жанр: Fusion
Носитель: CD
Страна-производитель диска (релиза): Япония
Год издания: 2013
Издатель (лейбл): Three Blind Mice/Think! Records
Номер по каталогу: THCD-226
Аудиокодек: FLAC (*.flac)
Тип рипа: tracks+.cue
Битрейт аудио: lossless
Продолжительность: 40:46
Источник (релизер): wikieup (what)
Наличие сканов в содержимом раздачи: нет
Треклист:
01. Blue Road (Suzuki) - 11:21
02. Where Are You Going? (Horn) - 7:30
03. My One and Only Love (Mellin-Wood) - 6:51
04. Orang-Utan (Suzuki) - 15:04
Состав:
Isao Suzuki - electric piano, cello, bass
Kazumi Watanabe - guitar
Osamu Kawakami - bass
Shinji Mori - drums
Kenji Mori (#1,2,4) - bass clarinet, alto saxophone, flute
Mari Nakamoto - vocals (#2)
Recorded at Aoi Studio, Tokyo on April 4, 1975.
 
Лог создания рипа
Exact Audio Copy V1.0 beta 3 from 29. August 2011
EAC extraction logfile from 18. March 2014, 12:05
Isao Suzuki Quartet +2 / Orang-Utan
Used drive : TSSTcorpDVD-ROM TS-U333B Adapter: 0 ID: 1
Read mode : Secure
Utilize accurate stream : Yes
Defeat audio cache : Yes
Make use of C2 pointers : No
Read offset correction : 6
Overread into Lead-In and Lead-Out : No
Fill up missing offset samples with silence : Yes
Delete leading and trailing silent blocks : No
Null samples used in CRC calculations : Yes
Used interface : Native Win32 interface for Win NT & 2000
Gap handling : Appended to previous track
Used output format : User Defined Encoder
Selected bitrate : 1024 kBit/s
Quality : High
Add ID3 tag : No
Command line compressor : C:\Program Files\Exact Audio Copy\Flac\flac.exe
Additional command line options : -8 -V -T "ARTIST=%artist%" -T "TITLE=%title%" -T "ALBUM=%albumtitle%" -T "DATE=%year%" -T "TRACKNUMBER=%tracknr%" -T "GENRE=%genre%" -T "PERFORMER=%albuminterpret%" -T "COMPOSER=%composer%" %haslyrics%--tag-from-file=LYRICS="%lyricsfile%"%haslyrics% -T "ALBUMARTIST=%albumartist%" -T "DISCNUMBER=%cdnumber%" -T "TOTALDISCS=%totalcds%" -T "TOTALTRACKS=%numtracks%" -T "COMMENT=%comment%" %source% -o %dest%
TOC of the extracted CD
Track | Start | Length | Start sector | End sector
---------------------------------------------------------
1 | 0:00.00 | 11:21.29 | 0 | 51103
2 | 11:21.29 | 7:30.27 | 51104 | 84880
3 | 18:51.56 | 6:51.33 | 84881 | 115738
4 | 25:43.14 | 15:03.67 | 115739 | 183530
Track 1
Filename C:\EAC Rips\01 - Blue Road.wav
Pre-gap length 0:00:02.00
Peak level 100.0 %
Extraction speed 1.3 X
Track quality 100.0 %
Test CRC 6E363A23
Copy CRC 6E363A23
Accurately ripped (confidence 1) [D415C2B4] (AR v2)
Copy OK
Track 2
Filename C:\EAC Rips\02 - Where Are You Going.wav
Peak level 99.7 %
Extraction speed 1.6 X
Track quality 100.0 %
Test CRC 86B255A0
Copy CRC 86B255A0
Accurately ripped (confidence 1) [1BDDD7ED] (AR v2)
Copy OK
Track 3
Filename C:\EAC Rips\03 - My One And Only Love.wav
Pre-gap length 0:00:01.82
Peak level 99.6 %
Extraction speed 1.7 X
Track quality 100.0 %
Test CRC 1302941F
Copy CRC 1302941F
Accurately ripped (confidence 1) [C23EC033] (AR v2)
Copy OK
Track 4
Filename C:\EAC Rips\04 - Orang-Utan.wav
Peak level 100.0 %
Extraction speed 2.0 X
Track quality 100.0 %
Test CRC F0098354
Copy CRC F0098354
Accurately ripped (confidence 1) [A8B62E9C] (AR v2)
Copy OK
All tracks accurately ripped
No errors occurred
End of status report
==== Log checksum C50483218900FA025B92BD927DCFE5B95030913B6EDDED1433B270A8873448C7 ====
 
Содержание индексной карты (.CUE)
REM GENRE Jazz
REM DATE 1975
REM DISCID 2A098F04
REM COMMENT "ExactAudioCopy v1.0b3"
PERFORMER "Isao Suzuki"
TITLE "Orang-Utan"
FILE "01 - Blue Road.wav" WAVE
TRACK 01 AUDIO
TITLE "Blue Road"
PERFORMER "Isao Suzuki"
INDEX 01 00:00:00
FILE "02 - Where Are You Going.wav" WAVE
TRACK 02 AUDIO
TITLE "Where Are You Going?"
PERFORMER "Isao Suzuki"
INDEX 01 00:00:00
TRACK 03 AUDIO
TITLE "My One and Only Love"
PERFORMER "Isao Suzuki"
INDEX 00 07:28:40
FILE "03 - My One and Only Love.wav" WAVE
INDEX 01 00:00:00
FILE "04 - Orang-Utan.wav" WAVE
TRACK 04 AUDIO
TITLE "Orang-Utan"
PERFORMER "Isao Suzuki"
INDEX 01 00:00:00
 
Отчет CUETools
[CUETools log; Date: 01.04.2015 16:40:22; Version: 2.1.5]
[CTDB TOCID: o.uV9paHckdmPAOp49buKL5bxY4-] found.
Track | CTDB Status
1 | (2/2) Accurately ripped
2 | (2/2) Accurately ripped
3 | (2/2) Accurately ripped
4 | (2/2) Accurately ripped
[AccurateRip ID: 0006a437-001a82f7-2a098f04] found.
Track [ CRC | V2 ] Status
01 [182dcf95|d415c2b4] (0+2/2) Accurately ripped
02 [eedaaf16|1bddd7ed] (0+2/2) Accurately ripped
03 [4ca8716f|c23ec033] (0+2/2) Accurately ripped
04 [dbd61628|a8b62e9c] (0+2/2) Accurately ripped
Track Peak [ CRC32 ] [W/O NULL] [ LOG ]
-- 100,0 [4F8A8424] [0B4C40B0]
01 100,0 [6E363A23] [06D6E2C9] CRC32
02 99,7 [86B255A0] [7657758E] CRC32
03 99,6 [1302941F] [D43946EE] CRC32
04 100,0 [F0098354] [7E66480C] CRC32
 
Об альбоме (сборнике)
Bassist Isao Suzuki's popularity shot up to stratosphere with the release of Blow Up from the Three Blind Mice label. By the time he recorded this, fourth album for the label, he was actually the winner of the Swing Journal Readers' Poll. And this rather strangely titled album doesn't disappoint.
Suzuki had a knack for surrounding himself with superb musicians and playing brilliant, groovy music that is firmly rooted in the jazz tradition. This time, he picked as the all-important horn player Kenji Mori whose superb playing on alto sax, bass clarinet and flute strongly remind us of Eric Dolphy. The guitar genius Kazumi Watanabe turns in wonderfully nuanced performances in every setting. Also, not insignificantly, Mari Nakamoto--one of the best female jazz vocalists Japan has ever produced--appears as a guest and sings Shirley Horn's "Where Are You Going?" with excellent results.
A superb album with great sound. Recommended!
Приватный:
Нет (DHT включён)
Размер:
243.42 Мб (255,242,211 байт) » файлов: 12
Участники:
0 раздают, 0 качают (0 участников всего)
Внешние участники:
8 раздают, 2 качают (10 участников всего) [ Обновить ]
For power users only: no seeders - write to support@pro-jazz.com. Для power user: нет сидеров - пишите на support@pro-jazz.com.
14:36
161
Нет комментариев. Ваш будет первым!