Поиск

(Fusion, Afro-Cuban Jazz) [CD] Oneness of Juju - Space Jungle Luv - 1976 (2002), FLAC (tracks+.cue), lossless

(Fusion, Afro-Cuban Jazz) [CD] Oneness of Juju - Space Jungle Luv - 1976 (2002), FLAC (tracks+.cue), lossless
Треклист:
Oneness of Juju - Space Jungle Luv
Жанр: Fusion, Afro-Cuban Jazz
Носитель: CD
Страна-производитель диска (релиза): Великобритания
Год издания: 1976 (2002)
Издатель (лейбл): Strut
Номер по каталогу: STRUTCD 028
Страна исполнителя (группы): США
Аудиокодек: FLAC (*.flac)
Тип рипа: tracks+.cue
Битрейт аудио: lossless
Продолжительность: 55:11
Источник (релизер): jesterrace (what)
Наличие сканов в содержимом раздачи: да
Треклист:
01. River Luv Rite (8:07)
02. Follow Me (5:02)
03. Soul Love Now (4:54)
04. Space Jungle Funk (9:39)
05. The Connection (3:19)
06. Love's Messenger (3:04)
07. Love's Messenger (Instrumental) (3:08)
08. F# (7:09)
09. Bootsie's Lament (2:10)
10. African Rhythm Chant (3:20)
11. Got to Be Right on It (5:19)
 
Лог создания рипа
Exact Audio Copy V1.0 beta 3 from 29. August 2011
EAC extraction logfile from 1. January 2012, 17:10
Oneness of Juju / Space Jungle Luv
Used drive : ASUS DRW-24B1ST a Adapter: 3 ID: 1
Read mode : Secure
Utilize accurate stream : Yes
Defeat audio cache : Yes
Make use of C2 pointers : No
Read offset correction : 6
Overread into Lead-In and Lead-Out : No
Fill up missing offset samples with silence : Yes
Delete leading and trailing silent blocks : No
Null samples used in CRC calculations : Yes
Used interface : Native Win32 interface for Win NT & 2000
Gap handling : Appended to previous track
Used output format : User Defined Encoder
Selected bitrate : 1024 kBit/s
Quality : High
Add ID3 tag : No
Command line compressor : C:\Program Files (x86)\FLAC\flac.exe
Additional command line options : -8 -V -T "ARTIST=%artist%" -T "TITLE=%title%" -T "ALBUM=%albumtitle%" -T "DATE=%year%" -T "TRACKNUMBER=%tracknr%" -T "TOTALTRACKS=%numtracks%" -T "GENRE=%genre%" -T "ALBUM ARTIST=%albumartist%" -T "ALBUMARTIST=%albumartist%" -T "COMPOSER=%albumcomposer%" -T "PERFORMER=%albuminterpret%" %haslyrics%-T "LYRICS=%lyrics%"%haslyrics% -T "COMMENT=EAC V1.0 beta 3, Secure Mode, Test & Copy, AccurateRip, FLAC -8" %source%
TOC of the extracted CD
Track | Start | Length | Start sector | End sector
---------------------------------------------------------
1 | 0:00.00 | 8:06.42 | 0 | 36491
2 | 8:06.42 | 5:01.74 | 36492 | 59140
3 | 13:08.41 | 4:54.23 | 59141 | 81213
4 | 18:02.64 | 9:39.18 | 81214 | 124656
5 | 27:42.07 | 3:19.31 | 124657 | 139612
6 | 31:01.38 | 3:03.39 | 139613 | 153376
7 | 34:05.02 | 3:07.61 | 153377 | 167462
8 | 37:12.63 | 7:09.35 | 167463 | 199672
9 | 44:22.23 | 2:09.62 | 199673 | 209409
10 | 46:32.10 | 3:20.07 | 209410 | 224416
11 | 49:52.17 | 5:19.35 | 224417 | 248376
Track 1
Filename G:\01 - River Luv Rite.wav
Pre-gap length 0:00:02.00
Peak level 96.9 %
Extraction speed 3.8 X
Track quality 100.0 %
Test CRC 9EBA03FC
Copy CRC 9EBA03FC
Accurately ripped (confidence 4) [510230B5] (AR v1)
Copy OK
Track 2
Filename G:\02 - Follow Me.wav
Pre-gap length 0:00:02.16
Peak level 95.6 %
Extraction speed 4.3 X
Track quality 100.0 %
Test CRC 62EA66FB
Copy CRC 62EA66FB
Accurately ripped (confidence 4) [ABFA6759] (AR v1)
Copy OK
Track 3
Filename G:\03 - Soul Love Now.wav
Pre-gap length 0:00:02.14
Peak level 91.5 %
Extraction speed 4.7 X
Track quality 100.0 %
Test CRC C22F08F9
Copy CRC C22F08F9
Accurately ripped (confidence 4) [46D3E0ED] (AR v1)
Copy OK
Track 4
Filename G:\04 - Space Jungle Funk.wav
Pre-gap length 0:00:02.21
Peak level 96.6 %
Extraction speed 5.4 X
Track quality 100.0 %
Test CRC CBE97546
Copy CRC CBE97546
Accurately ripped (confidence 4) [8E9EB71C] (AR v1)
Copy OK
Track 5
Filename G:\05 - The Connection.wav
Pre-gap length 0:00:01.61
Peak level 94.5 %
Extraction speed 5.3 X
Track quality 100.0 %
Test CRC 118B7873
Copy CRC 118B7873
Accurately ripped (confidence 4) [4FAE43D5] (AR v1)
Copy OK
Track 6
Filename G:\06 - Love's Messenger.wav
Pre-gap length 0:00:00.04
Peak level 86.2 %
Extraction speed 5.4 X
Track quality 100.0 %
Test CRC 9605730C
Copy CRC 9605730C
Accurately ripped (confidence 4) [CD44000C] (AR v1)
Copy OK
Track 7
Filename G:\07 - Love's Messenger (instrumental).wav
Pre-gap length 0:00:01.18
Peak level 97.1 %
Extraction speed 5.5 X
Track quality 100.0 %
Test CRC 9FAF9FDE
Copy CRC 9FAF9FDE
Accurately ripped (confidence 4) [3E31F5DE] (AR v1)
Copy OK
Track 8
Filename G:\08 - F#.wav
Pre-gap length 0:00:02.08
Peak level 88.3 %
Extraction speed 6.4 X
Track quality 100.0 %
Test CRC 39D65BF0
Copy CRC 39D65BF0
Accurately ripped (confidence 4) [67EC612E] (AR v1)
Copy OK
Track 9
Filename G:\09 - Bootsie's Lament.wav
Pre-gap length 0:00:01.01
Peak level 96.2 %
Extraction speed 4.0 X
Track quality 99.9 %
Test CRC CD9FF4DE
Copy CRC CD9FF4DE
Accurately ripped (confidence 4) [B2F6CA80] (AR v1)
Copy OK
Track 10
Filename G:\10 - African Rhythm Chant.wav
Pre-gap length 0:00:02.44
Peak level 84.3 %
Extraction speed 6.2 X
Track quality 100.0 %
Test CRC 971C1CA1
Copy CRC 971C1CA1
Accurately ripped (confidence 4) [6D9B686E] (AR v1)
Copy OK
Track 11
Filename G:\11 - Got To Be Right On It.wav
Pre-gap length 0:00:01.05
Peak level 94.9 %
Extraction speed 6.8 X
Track quality 100.0 %
Test CRC A51360C3
Copy CRC A51360C3
Accurately ripped (confidence 4) [8D6C577E] (AR v1)
Copy OK
All tracks accurately ripped
No errors occurred
End of status report
---- CUETools DB Plugin V2.1.3
[CTDB TOCID: kjTMFAAxftmyJ3iXWOSCqWUhjHQ-] disk not present in database, Submit result: kjTMFAAxftmyJ3iXWOSCqWUhjHQ- has been uploaded
==== Log checksum C10571E28A32C5115392BF8AA190063011951A0FFC5D60563F694D7905AFECC5 ====
 
Содержание индексной карты (.CUE)
REM GENRE Jazz
REM DATE 1976
REM DISCID AE0CEF0B
REM COMMENT "ExactAudioCopy v1.0b3"
PERFORMER "Oneness of Juju"
TITLE "Space Jungle Luv"
FILE "01 - River Luv Rite.wav" WAVE
TRACK 01 AUDIO
TITLE "River Luv Rite"
PERFORMER "Oneness of Juju"
INDEX 01 00:00:00
TRACK 02 AUDIO
TITLE "Follow Me"
PERFORMER "Oneness of Juju"
INDEX 00 08:04:30
FILE "02 - Follow Me.wav" WAVE
INDEX 01 00:00:00
TRACK 03 AUDIO
TITLE "Soul Love Now"
PERFORMER "Oneness of Juju"
INDEX 00 04:59:63
FILE "03 - Soul Love Now.wav" WAVE
INDEX 01 00:00:00
TRACK 04 AUDIO
TITLE "Space Jungle Funk"
PERFORMER "Oneness of Juju"
INDEX 00 04:52:07
FILE "04 - Space Jungle Funk.wav" WAVE
INDEX 01 00:00:00
TRACK 05 AUDIO
TITLE "The Connection"
PERFORMER "Oneness of Juju"
INDEX 00 09:37:47
FILE "05 - The Connection.wav" WAVE
INDEX 01 00:00:00
TRACK 06 AUDIO
TITLE "Love's Messenger"
PERFORMER "Oneness of Juju"
INDEX 00 03:19:28
FILE "06 - Love's Messenger.wav" WAVE
INDEX 01 00:00:00
TRACK 07 AUDIO
TITLE "Love's Messenger (Instrumental)"
PERFORMER "Oneness of Juju"
INDEX 00 03:02:25
FILE "07 - Love's Messenger (Instrumental).wav" WAVE
INDEX 01 00:00:00
TRACK 08 AUDIO
TITLE "F Sharp"
PERFORMER "Oneness of Juju"
INDEX 00 03:05:55
FILE "08 - F Sharp.wav" WAVE
INDEX 01 00:00:00
TRACK 09 AUDIO
TITLE "Bootsie's Lament"
PERFORMER "Oneness of Juju"
INDEX 00 07:08:34
FILE "09 - Bootsie's Lament.wav" WAVE
INDEX 01 00:00:00
TRACK 10 AUDIO
TITLE "African Rhythm Chant"
PERFORMER "Oneness of Juju"
INDEX 00 02:07:29
FILE "10 - African Rhythm Chant.wav" WAVE
INDEX 01 00:00:00
TRACK 11 AUDIO
TITLE "Got to Be Right on It"
PERFORMER "Oneness of Juju"
INDEX 00 03:19:03
FILE "11 - Got to Be Right on It.wav" WAVE
INDEX 01 00:00:00
 
Отчет CUETools
[CUETools log; Date: 27.04.2015 21:18:45; Version: 2.1.5]
[CTDB TOCID: kjTMFAAxftmyJ3iXWOSCqWUhjHQ-] found.
Track | CTDB Status
1 | (4/4) Accurately ripped
2 | (4/4) Accurately ripped
3 | (4/4) Accurately ripped
4 | (4/4) Accurately ripped
5 | (4/4) Accurately ripped
6 | (4/4) Accurately ripped
7 | (4/4) Accurately ripped
8 | (4/4) Accurately ripped
9 | (4/4) Accurately ripped
10 | (4/4) Accurately ripped
11 | (4/4) Accurately ripped
[AccurateRip ID: 0019153a-00d26a8e-ae0cef0b] found.
Track [ CRC | V2 ] Status
01 [510230b5|9248c12f] (5+2/7) Accurately ripped
02 [abfa6759|7fcae4ae] (5+2/7) Accurately ripped
03 [46d3e0ed|c793d4ac] (5+2/7) Accurately ripped
04 [8e9eb71c|81d87dcd] (5+2/7) Accurately ripped
05 [4fae43d5|eaa04568] (5+2/7) Accurately ripped
06 [cd44000c|626a7ec9] (5+2/7) Accurately ripped
07 [3e31f5de|16f7d251] (5+2/7) Accurately ripped
08 [67ec612e|7c59871c] (5+2/7) Accurately ripped
09 [b2f6ca80|fb7279f6] (5+2/7) Accurately ripped
10 [6d9b686e|a467ece2] (5+2/7) Accurately ripped
11 [8d6c577e|c306cfe9] (5+2/7) Accurately ripped
Track Peak [ CRC32 ] [W/O NULL] [ LOG ]
-- 97,1 [F8249BF0] [4D9DE1DC]
01 96,9 [9EBA03FC] [714390F1] CRC32
02 95,6 [62EA66FB] [9A1FCE26] CRC32
03 91,5 [C22F08F9] [57573E9A] CRC32
04 96,6 [CBE97546] [FF6E9922] CRC32
05 94,5 [118B7873] [F9A2C241] CRC32
06 86,2 [9605730C] [ED9A7D13] CRC32
07 97,1 [9FAF9FDE] [9BC791F4] CRC32
08 88,3 [39D65BF0] [B339594A] CRC32
09 96,2 [CD9FF4DE] [1C06BD1C] CRC32
10 84,3 [971C1CA1] [733751D2] CRC32
11 94,9 [A51360C3] [23237370] CRC32
 
Review by John Bush
The message was enormously positive on the debut Oneness of Juju record, and for the follow-up, bandleader Plunky Branch developed a lighter, more free sound to parallel the consciousness-raising themes. Make no mistake: the group plays just as tight as on African Rhythms, but here the emphasis is on creating an atmosphere instead of approximating a religious ritual. As on the first record, the opener is the hands-down highlight; Plunky latches onto a short, playful theme, stretches it out into a vibrant solo, and returns to it often over the course of eight minutes (even switching from tenor to alto after a few minutes). Pianist Joe Bonner also contributes a solid solo, and vocalist Eka-Ete Jackie Lewis sounds powerful but very calm and controlled, wordlessly vocalizing her own solo underneath Bonner and Plunky. Quieter numbers like "Soul Love Now" and "Love's Messenger" rely more on exploratory percussion than a steady rock backbeat, but "Space Jungle Funk" and "Got to Be Right on It" are two of the heaviest tracks the band had cut up to that point. As on the first, great playing from a tuned-in band carries the day over an occasional lack of innovation or imagination. [The 2002 reissue on Strut added the previously unreleased track "F#" to the program.]
 
Состав
Plunky Nkabinde - tenor saxophone, soprano saxophone, electric-maestro-bi-phased saxophone, flute, percussion, vocals
Melvin "Slyp" Glover - lead guitar, rhythm guitar
Muzi Nkabinde - Fender bass, percussion
Ronnie Toler - drums
Rafael Solano - congas
Richard "Dick" Watkins - congas, percussion
Alfredo Mojica - timbales
Eka-Ete - lead vocals, backing vocals
with
Lon Moshe (#3) - marimba
Joe Bonner (#1,4) - piano
Al Hammel Rasul (#3) - piano, vocals
Babatunde (#3) - drums, vocals
Recorded at Bias Recording Studios, Falls Church, VA on June 4, 1976.
18:29
262
Нет комментариев. Ваш будет первым!