Поиск

(Fusion, African Jazz, Smooth Jazz) [CD] Jimmy Dludlu - Afrocentric - 2002, FLAC (tracks+.cue), lossless

(Fusion, African Jazz, Smooth Jazz) [CD] Jimmy Dludlu - Afrocentric - 2002, FLAC (tracks+.cue), lossless
Треклист:
Jimmy Dludlu - Afrocentric
Жанр: Fusion, African Jazz, Smooth Jazz
Носитель: CD
Страна-производитель диска (релиза): ЮАР
Год издания: 2002
Издатель (лейбл): Universal South Africa
Номер по каталогу: CDSRBL 299
Аудиокодек: FLAC (*.flac)
Тип рипа: tracks+.cue
Битрейт аудио: lossless
Продолжительность: 72:45
Источник (релизер): dragdrag (what)
Наличие сканов в содержимом раздачи: да
Треклист:
01. Africa Africa (feat. Bebe Winnans) (5:32)
02. Afrocentric (4:32)
03. I Wish I Knew (5:25)
04. River of Lost Dreams (5:07)
05. Inyoni Iyaphapha (5:17)
06. Common Dialogue (4:59)
07. Walk of Life (4:35)
08. Library in Flames (6:10)
09. Simone (5:19)
10. Peaceful Moment (7:36)
11. Basil Goes to Church (5:50)
12. Mdantsane (6:37)
13. The Wood That Sings of Sorrow (5:46)
 
Лог создания рипа
Exact Audio Copy V1.0 beta 4 from 7. December 2014
EAC extraction logfile from 27. February 2015, 23:17
Jimmy Dludlu / Afrocentric
Used drive : TSSTcorpDVD+-RW TS-H653F Adapter: 1 ID: 0
Read mode : Secure
Utilize accurate stream : Yes
Defeat audio cache : Yes
Make use of C2 pointers : No
Read offset correction : 6
Overread into Lead-In and Lead-Out : No
Fill up missing offset samples with silence : Yes
Delete leading and trailing silent blocks : No
Null samples used in CRC calculations : Yes
Used interface : Native Win32 interface for Win NT & 2000
Gap handling : Appended to previous track
Used output format : User Defined Encoder
Selected bitrate : 896 kBit/s
Quality : High
Add ID3 tag : No
Command line compressor : C:\Program Files (x86)\Exact Audio Copy\FLAC\FLAC.EXE
Additional command line options : -8 -V -T "ARTIST=%artist%" -T "TITLE=%title%" -T "ALBUM=%albumtitle%" -T "DATE=%year%" -T "TRACKNUMBER=%tracknr1%" -T "GENRE=%genre%" -T "PERFORMER=%albuminterpret%" -T "COMPOSER=%composer%" %haslyrics%--tag-from-file=LYRICS="%lyricsfile%"%haslyrics% -T "ALBUMARTIST=%albumartist%" -T "DISCNUMBER=%cdnumber%" -T "TOTALDISCS=%totalcds%" -T "TOTALTRACKS=%numtracks%" -T "COMMENT=%comment%" %source% -o %dest%
TOC of the extracted CD
Track | Start | Length | Start sector | End sector
---------------------------------------------------------
1 | 0:00.00 | 5:32.01 | 0 | 24900
2 | 5:32.01 | 4:32.00 | 24901 | 45300
3 | 10:04.01 | 5:25.21 | 45301 | 69696
4 | 15:29.22 | 5:07.33 | 69697 | 92754
5 | 20:36.55 | 5:17.22 | 92755 | 116551
6 | 25:54.02 | 4:59.24 | 116552 | 139000
7 | 30:53.26 | 4:35.16 | 139001 | 159641
8 | 35:28.42 | 6:10.14 | 159642 | 187405
9 | 41:38.56 | 5:19.23 | 187406 | 211353
10 | 46:58.04 | 7:35.53 | 211354 | 245531
11 | 54:33.57 | 5:50.09 | 245532 | 271790
12 | 60:23.66 | 6:37.23 | 271791 | 301588
13 | 67:01.14 | 5:46.13 | 301589 | 327551
Track 1
Filename C:\rip\Jimmy Dludlu - Afrocentric (2002) - FLAC\01 - Africa Africa.wav
Pre-gap length 0:00:02.00
Peak level 94.2 %
Extraction speed 2.0 X
Track quality 99.9 %
Test CRC 998B13D3
Copy CRC 998B13D3
Accurately ripped (confidence 4) [1F5B6EF9] (AR v1)
Copy OK
Track 2
Filename C:\rip\Jimmy Dludlu - Afrocentric (2002) - FLAC\02 - Afrocentric.wav
Pre-gap length 0:00:02.00
Peak level 96.9 %
Extraction speed 2.2 X
Track quality 100.0 %
Test CRC 720AA2D5
Copy CRC 720AA2D5
Accurately ripped (confidence 4) [0A50F9A6] (AR v1)
Copy OK
Track 3
Filename C:\rip\Jimmy Dludlu - Afrocentric (2002) - FLAC\03 - I Wish I Knew.wav
Pre-gap length 0:00:02.00
Peak level 93.6 %
Extraction speed 2.2 X
Track quality 100.0 %
Test CRC A0C814F6
Copy CRC A0C814F6
Accurately ripped (confidence 4) [92AF6FD3] (AR v1)
Copy OK
Track 4
Filename C:\rip\Jimmy Dludlu - Afrocentric (2002) - FLAC\04 - River of Lost Dreams.wav
Pre-gap length 0:00:02.00
Peak level 95.2 %
Extraction speed 1.9 X
Track quality 99.9 %
Test CRC 073C67BA
Copy CRC 073C67BA
Accurately ripped (confidence 4) [BCB7B071] (AR v1)
Copy OK
Track 5
Filename C:\rip\Jimmy Dludlu - Afrocentric (2002) - FLAC\05 - Inyoni iyaphapha.wav
Pre-gap length 0:00:02.00
Peak level 99.8 %
Extraction speed 2.2 X
Track quality 100.0 %
Test CRC 24F74420
Copy CRC 24F74420
Accurately ripped (confidence 4) [A98C1373] (AR v1)
Copy OK
Track 6
Filename C:\rip\Jimmy Dludlu - Afrocentric (2002) - FLAC\06 - Common Dialogue.wav
Pre-gap length 0:00:02.00
Peak level 90.0 %
Extraction speed 2.2 X
Track quality 100.0 %
Test CRC 54126379
Copy CRC 54126379
Accurately ripped (confidence 4) [EE82D460] (AR v1)
Copy OK
Track 7
Filename C:\rip\Jimmy Dludlu - Afrocentric (2002) - FLAC\07 - Walk of Life.wav
Pre-gap length 0:00:02.00
Peak level 88.9 %
Extraction speed 1.9 X
Track quality 99.9 %
Test CRC 06660FD5
Copy CRC 06660FD5
Accurately ripped (confidence 4) [8B7880C5] (AR v1)
Copy OK
Track 8
Filename C:\rip\Jimmy Dludlu - Afrocentric (2002) - FLAC\08 - Library in Flames.wav
Pre-gap length 0:00:02.00
Peak level 86.0 %
Extraction speed 2.0 X
Track quality 99.9 %
Test CRC 9411420F
Copy CRC 9411420F
Accurately ripped (confidence 4) [E16A75B7] (AR v1)
Copy OK
Track 9
Filename C:\rip\Jimmy Dludlu - Afrocentric (2002) - FLAC\09 - Simone.wav
Pre-gap length 0:00:02.00
Peak level 82.5 %
Extraction speed 2.2 X
Track quality 100.0 %
Test CRC E0562FDC
Copy CRC E0562FDC
Accurately ripped (confidence 4) [528DC224] (AR v1)
Copy OK
Track 10
Filename C:\rip\Jimmy Dludlu - Afrocentric (2002) - FLAC\10 - Peaceful Moment.wav
Pre-gap length 0:00:02.00
Peak level 76.3 %
Extraction speed 2.2 X
Track quality 100.0 %
Test CRC BBB499FB
Copy CRC BBB499FB
Accurately ripped (confidence 4) [E98275FD] (AR v1)
Copy OK
Track 11
Filename C:\rip\Jimmy Dludlu - Afrocentric (2002) - FLAC\11 - Basil Goes to Church.wav
Pre-gap length 0:00:02.00
Peak level 88.5 %
Extraction speed 2.1 X
Track quality 100.0 %
Test CRC 3E728B63
Copy CRC 3E728B63
Accurately ripped (confidence 4) [6FC42B43] (AR v1)
Copy OK
Track 12
Filename C:\rip\Jimmy Dludlu - Afrocentric (2002) - FLAC\12 - Mdantsane.wav
Pre-gap length 0:00:02.00
Peak level 84.6 %
Extraction speed 2.2 X
Track quality 100.0 %
Test CRC 795647A0
Copy CRC 795647A0
Accurately ripped (confidence 4) [325C8D1E] (AR v1)
Copy OK
Track 13
Filename C:\rip\Jimmy Dludlu - Afrocentric (2002) - FLAC\13 - The Wood That Sings of Sorrow.wav
Pre-gap length 0:00:02.00
Peak level 85.1 %
Extraction speed 2.2 X
Track quality 100.0 %
Test CRC 699A75C3
Copy CRC 699A75C3
Accurately ripped (confidence 4) [A14DD9FF] (AR v1)
Copy OK
All tracks accurately ripped
No errors occurred
End of status report
==== Log checksum E9EB19A661C3901069A2FAB5CF356701FEE4CCD17B3DF95BBC3259F1C402943C ====
 
Содержание индексной карты (.CUE)
REM GENRE Jazz
REM DATE 2002
REM DISCID 9A110F0D
REM COMMENT "ExactAudioCopy v1.0b4"
PERFORMER "Jimmy Dludlu"
TITLE "Afrocentric"
FILE "01 - Africa Africa.wav" WAVE
TRACK 01 AUDIO
TITLE "Africa Africa"
PERFORMER "Jimmy Dludlu"
INDEX 01 00:00:00
TRACK 02 AUDIO
TITLE "Afrocentric"
PERFORMER "Jimmy Dludlu"
INDEX 00 05:30:01
FILE "02 - Afrocentric.wav" WAVE
INDEX 01 00:00:00
TRACK 03 AUDIO
TITLE "I Wish I Knew"
PERFORMER "Jimmy Dludlu"
INDEX 00 04:30:00
FILE "03 - I Wish I Knew.wav" WAVE
INDEX 01 00:00:00
TRACK 04 AUDIO
TITLE "River of Lost Dreams"
PERFORMER "Jimmy Dludlu"
INDEX 00 05:23:21
FILE "04 - River of Lost Dreams.wav" WAVE
INDEX 01 00:00:00
TRACK 05 AUDIO
TITLE "Inyoni Iyaphapha"
PERFORMER "Jimmy Dludlu"
INDEX 00 05:05:33
FILE "05 - Inyoni Iyaphapha.wav" WAVE
INDEX 01 00:00:00
TRACK 06 AUDIO
TITLE "Common Dialogue"
PERFORMER "Jimmy Dludlu"
INDEX 00 05:15:22
FILE "06 - Common Dialogue.wav" WAVE
INDEX 01 00:00:00
TRACK 07 AUDIO
TITLE "Walk of Life"
PERFORMER "Jimmy Dludlu"
INDEX 00 04:57:24
FILE "07 - Walk of Life.wav" WAVE
INDEX 01 00:00:00
TRACK 08 AUDIO
TITLE "Library in Flames"
PERFORMER "Jimmy Dludlu"
INDEX 00 04:33:16
FILE "08 - Library in Flames.wav" WAVE
INDEX 01 00:00:00
TRACK 09 AUDIO
TITLE "Simone"
PERFORMER "Jimmy Dludlu"
INDEX 00 06:08:14
FILE "09 - Simone.wav" WAVE
INDEX 01 00:00:00
TRACK 10 AUDIO
TITLE "Peaceful Moment"
PERFORMER "Jimmy Dludlu"
INDEX 00 05:17:23
FILE "10 - Peaceful Moment.wav" WAVE
INDEX 01 00:00:00
TRACK 11 AUDIO
TITLE "Basil Goes to Church"
PERFORMER "Jimmy Dludlu"
INDEX 00 07:33:53
FILE "11 - Basil Goes to Church.wav" WAVE
INDEX 01 00:00:00
TRACK 12 AUDIO
TITLE "Mdantsane"
PERFORMER "Jimmy Dludlu"
INDEX 00 05:48:09
FILE "12 - Mdantsane.wav" WAVE
INDEX 01 00:00:00
TRACK 13 AUDIO
TITLE "The Wood That Sings of Sorrow"
PERFORMER "Jimmy Dludlu"
INDEX 00 06:35:23
FILE "13 - The Wood That Sings of Sorrow.wav" WAVE
INDEX 01 00:00:00
 
Отчет CUETools
[CUETools log; Date: 13.07.2016 22:13:11; Version: 2.1.5]
[CTDB TOCID: ni4L0jDzwofv9wrRi_iIFZSbEy8-] found.
Track | CTDB Status
1 | (1/1) Accurately ripped
2 | (1/1) Accurately ripped
3 | (1/1) Accurately ripped
4 | (1/1) Accurately ripped
5 | (1/1) Accurately ripped
6 | (1/1) Accurately ripped
7 | (1/1) Accurately ripped
8 | (1/1) Accurately ripped
9 | (1/1) Accurately ripped
10 | (1/1) Accurately ripped
11 | (1/1) Accurately ripped
12 | (1/1) Accurately ripped
13 | (1/1) Accurately ripped
[AccurateRip ID: 002176b1-0151ee57-9a110f0d] found.
Track [ CRC | V2 ] Status
01 [1f5b6ef9|19e70766] (4+0/4) Accurately ripped
02 [0a50f9a6|251f147b] (4+0/4) Accurately ripped
03 [92af6fd3|7ec74827] (4+0/4) Accurately ripped
04 [bcb7b071|d7510f3c] (4+0/4) Accurately ripped
05 [a98c1373|a3edf920] (4+0/4) Accurately ripped
06 [ee82d460|8fd75e83] (4+0/4) Accurately ripped
07 [8b7880c5|8a70a1cd] (4+0/4) Accurately ripped
08 [e16a75b7|089b47a8] (4+0/4) Accurately ripped
09 [528dc224|1b111999] (4+0/4) Accurately ripped
10 [e98275fd|037648aa] (4+0/4) Accurately ripped
11 [6fc42b43|0639e9c9] (4+0/4) Accurately ripped
12 [325c8d1e|a88f82ff] (4+0/4) Accurately ripped
13 [a14dd9ff|076c76fc] (4+0/4) Accurately ripped
Track Peak [ CRC32 ] [W/O NULL] [ LOG ]
-- 99,8 [A61FDBB3] [A925F381]
01 94,2 [998B13D3] [EC7B2D46] CRC32
02 96,9 [720AA2D5] [5A3D1629] CRC32
03 93,6 [A0C814F6] [B946A9B7] CRC32
04 95,2 [073C67BA] [2ECEFC36] CRC32
05 99,8 [24F74420] [FBB68675] CRC32
06 90,0 [54126379] [6DCC0F2C] CRC32
07 88,9 [06660FD5] [61B7A1C4] CRC32
08 86,0 [9411420F] [EB2F008B] CRC32
09 82,5 [E0562FDC] [1DD22A51] CRC32
10 76,3 [BBB499FB] [76219D34] CRC32
11 88,5 [3E728B63] [A81FCB05] CRC32
12 84,6 [795647A0] [C042A5B4] CRC32
13 85,1 [699A75C3] [9C9B490F] CRC32
 
Об альбоме (сборнике)
"Jimmy stands side by side with the guitar masters of the 20th and 21st centuries, such as Charlie Christian, Wes Montgomery, George Benson and Django Reinhardt. That he is confined to South Africa is a great loss to the rest of the world. I hope that his record company will have the vision to market him internationally because he will certainly break down many walls. Jimmy is here to stay." by Hugh Masekela.
Having listened to this disc on several occasions I can only agree with Mr. Masekela's opinion of Dludlu's talent and echo his sentiments regarding more universal recognition of this truly outstanding musician. Until I received this issue I was completely unaware of this remarkably accomplished guitarist but I am now convinced that he is a name to look out for in future. Whilst Hugh Masekela's claims might seem somewhat extravagant I think anyone who listens to this record will be compelled to agree. All of the influences cited can be heard in Jimmy Dludlu's performances and yet he has managed to develop and mould all of this into a highly personal style.
The music on this disc, while having its roots in Jazz, transcends the boundaries of categorisation and is Dludlu's own take on a blend of various idioms. All of the tunes are his own compositions with the exceptions of "One In Between", which he co-wrote with Mark Goliath, and "Simone" which was written by George Lee. "Afrocentric" has great choral effects and, apart from the leader, features excellent solos from Moreira Chonguica and piano from Mark Goliath. "I Wish I Knew " has Benson-like scat during the theme and guitar solo - which would serve to strip paint with its heat and intensity. "Inyoni iyaphapha" is an intriguing mixture of Brazilian samba/bossa nova and African influences. This is particularly fascinating as the roots of the samba are from Africa . Of course there is a feeling of "High Life " music, in the style of Abdullah Ibrahim, throughout this disc. The standard of the accompanying musicians is excellent on all selections but I am afraid this disc is really all about one person !
-- Dick Stafford
 
Состав
Jimmy Dludlu - guitars, vocals
Moreira Chonguica (#2,7) - alto saxophone, soprano saxophone
Fana Zulu (#2,4-6,11,12), Lucas Khumalo (#7,9) - bass guitar
Charles Lazar - acoustic bass (#8,10)
John Hassan, Tlale Makhene - percussion (#3,6,7,9,11,13)
Mark Goliath (#2-7,9,11,13), Mark Fransman (#2,8,10,12) - piano, keyboards
Frank Paco (#5,7,11,13), Kessivin Naidoo (#8,10,12) - drums
Hugh Masekela - trumpet (#4)
Soweto String Quartet (#7,9)
Ernie Smith - rhythm guitar (#1)
Melanie Scholtz - vocals (#10)
Duma Ndlovu - poetry (#4)
21:44
212
Нет комментариев. Ваш будет первым!