Поиск

(Fusion, African Folk, Jazz-Rock) Bill Laswell - Deconstruction: The Celluloid Recordings (2CD) - 1993, FLAC (tracks+.cue), lossless

Треклист:
Bill Laswell - Deconstruction: The Celluloid Recordings
Жанр: Fusion, African Folk, Jazz-Rock
Год издания: 1993
Издатель (лейбл): Celluloid
Страна: США
Аудиокодек: FLAC (*.flac)
Тип рипа: tracks+.cue
Битрейт аудио: lossless
Продолжительность: CD1 - 71:38; CD2 - 68:12
Источник (релизер): fanCpants (what)
Наличие сканов в содержимом раздачи: сетевые
Треклист:
CD1:
01. Timezone - World Destruction (5:33)
02. Massacre - Killing Time (2:53)
03. Jalal Nuriddin & D. ST - Mean Machine (4:42)
04. Manu Dibango - Electric Africa (10:23)
05. Bill Laswell - Worksong (7:15)
06. Material - Memories (4:02)
07. Peter Brotzmann & Bill Laswell - Death Rattle (4:28)
08. Material - Reduction (5:32)
09. Bill Laswell - Uprising (1:07)
10. Deadline - Boat Peoples (7:07)
11. Material - For a Few Dollars More (3:53)
12. The Last Poets - Get Movin' (6:41)
13. Material - Busting Out (8:02)
CD2:
01. The Last Poets - Oh My People (7:34)
02. Fela Anikulapo Kuti - Cross Examination (11:54)
03. Ginger Baker - Interlock (4:54)
04. Mandingo - Harima (6:04)
05. Peter Brotzmann & Bill Laswell - Locomotive (3:43)
06. Fab Five Freddy - Change the Beat (7:40)
07. Shango - Shango Message (7:44)
08. Massacre - Legs (2:04)
09. Last Exit - My Balls/Your Chin (2:27)
10. Material - Square Dance (4:29)
11. Toure Kunda - Natalia (4:56)
12. Material - O.A.O. (4:43)
 
Техническая информация
 
Лог создания рипа CD1
Exact Audio Copy V0.99 prebeta 4 from 23. January 2008
EAC extraction logfile from 17. December 2008, 21:20
Bill Laswell / Deconstruction - The Celluloid Recordings (1)
Used drive : PIONEER DVD-RW DVR-110D Adapter: 2 ID: 1
Read mode : Secure
Utilize accurate stream : Yes
Defeat audio cache : Yes
Make use of C2 pointers : No
Read offset correction : 48
Overread into Lead-In and Lead-Out : No
Fill up missing offset samples with silence : Yes
Delete leading and trailing silent blocks : No
Null samples used in CRC calculations : Yes
Used interface : Native Win32 interface for Win NT & 2000
Gap handling : Appended to previous track
Used output format : User Defined Encoder
Selected bitrate : 128 kBit/s
Quality : High
Add ID3 tag : No
Command line compressor : C:\Program Files\Exact Audio Copy\Flac\flac.exe
Additional command line options : -V -8 -T "artist=%a" -T "title=%t" -T "album=%g" -T "date=%y" -T "tracknumber=%n" -T "genre=%m" %s
TOC of the extracted CD
Track | Start | Length | Start sector | End sector
---------------------------------------------------------
1 | 0:00.50 | 5:33.55 | 50 | 25079
2 | 5:34.30 | 2:53.15 | 25080 | 38069
3 | 8:27.45 | 4:42.45 | 38070 | 59264
4 | 13:10.15 | 10:23.45 | 59265 | 106034
5 | 23:33.60 | 7:15.00 | 106035 | 138659
6 | 30:48.60 | 4:02.27 | 138660 | 156836
7 | 34:51.12 | 4:28.20 | 156837 | 176956
8 | 39:19.32 | 5:32.20 | 176957 | 201876
9 | 44:51.52 | 1:07.23 | 201877 | 206924
10 | 45:59.00 | 7:07.30 | 206925 | 238979
11 | 53:06.30 | 3:53.00 | 238980 | 256454
12 | 56:59.30 | 6:41.52 | 256455 | 286581
13 | 63:41.07 | 8:02.45 | 286582 | 322776
Track 1
Filename F:\EAC Rips\Bill Laswell - 1993 - Deconstruction - The Celluloid Recordings (1)\01 - Timezone , World Destruction.wav
Pre-gap length 0:00:02.66
Peak level 96.9 %
Track quality 99.9 %
Test CRC 942C6A5B
Copy CRC 942C6A5B
Track not present in AccurateRip database
Copy OK
Track 2
Filename F:\EAC Rips\Bill Laswell - 1993 - Deconstruction - The Celluloid Recordings (1)\02 - Massacre , Killing Time.wav
Pre-gap length 0:00:01.64
Peak level 98.8 %
Track quality 100.0 %
Test CRC 92E48EB2
Copy CRC 92E48EB2
Track not present in AccurateRip database
Copy OK
Track 3
Filename F:\EAC Rips\Bill Laswell - 1993 - Deconstruction - The Celluloid Recordings (1)\03 - Jalal Nuriddin & D. ST , Mean Machine.wav
Pre-gap length 0:00:02.66
Peak level 98.8 %
Track quality 99.9 %
Test CRC D0743CA3
Copy CRC D0743CA3
Track not present in AccurateRip database
Copy OK
Track 4
Filename F:\EAC Rips\Bill Laswell - 1993 - Deconstruction - The Celluloid Recordings (1)\04 - Manu Dibango , Electric Africa.wav
Pre-gap length 0:00:01.26
Peak level 98.8 %
Track quality 99.9 %
Test CRC D905F549
Copy CRC D905F549
Track not present in AccurateRip database
Copy OK
Track 5
Filename F:\EAC Rips\Bill Laswell - 1993 - Deconstruction - The Celluloid Recordings (1)\05 - Bill Laswell , Worksong.wav
Pre-gap length 0:00:01.44
Peak level 98.8 %
Track quality 99.9 %
Test CRC 7A66E3FF
Copy CRC 7A66E3FF
Track not present in AccurateRip database
Copy OK
Track 6
Filename F:\EAC Rips\Bill Laswell - 1993 - Deconstruction - The Celluloid Recordings (1)\06 - Material , Memories.wav
Pre-gap length 0:00:01.24
Peak level 93.5 %
Track quality 100.0 %
Test CRC 096B0F83
Copy CRC 096B0F83
Track not present in AccurateRip database
Copy OK
Track 7
Filename F:\EAC Rips\Bill Laswell - 1993 - Deconstruction - The Celluloid Recordings (1)\07 - Peter Brotzman & Bill Laswell , Death Rattle.wav
Pre-gap length 0:00:03.13
Peak level 90.5 %
Track quality 100.0 %
Test CRC D6BF7C75
Copy CRC D6BF7C75
Track not present in AccurateRip database
Copy OK
Track 8
Filename F:\EAC Rips\Bill Laswell - 1993 - Deconstruction - The Celluloid Recordings (1)\08 - Material , Reduction.wav
Pre-gap length 0:00:01.89
Peak level 97.7 %
Track quality 100.0 %
Test CRC ACAC329C
Copy CRC ACAC329C
Track not present in AccurateRip database
Copy OK
Track 9
Filename F:\EAC Rips\Bill Laswell - 1993 - Deconstruction - The Celluloid Recordings (1)\09 - Bill Laswell , Uprising.wav
Pre-gap length 0:00:01.82
Peak level 98.8 %
Track quality 100.0 %
Test CRC 59C6ADE9
Copy CRC 59C6ADE9
Track not present in AccurateRip database
Copy OK
Track 10
Filename F:\EAC Rips\Bill Laswell - 1993 - Deconstruction - The Celluloid Recordings (1)\10 - Deadline , Boat Peoples.wav
Pre-gap length 0:00:02.06
Peak level 95.1 %
Track quality 100.0 %
Test CRC 76FF4166
Copy CRC 76FF4166
Track not present in AccurateRip database
Copy OK
Track 11
Filename F:\EAC Rips\Bill Laswell - 1993 - Deconstruction - The Celluloid Recordings (1)\11 - Material , For A Few Dollars More.wav
Pre-gap length 0:00:02.17
Peak level 86.2 %
Track quality 100.0 %
Test CRC 03765572
Copy CRC 03765572
Track not present in AccurateRip database
Copy OK
Track 12
Filename F:\EAC Rips\Bill Laswell - 1993 - Deconstruction - The Celluloid Recordings (1)\12 - The Last Poets , Get Movin'.wav
Pre-gap length 0:00:01.80
Peak level 98.8 %
Track quality 100.0 %
Test CRC CAC0B679
Copy CRC CAC0B679
Track not present in AccurateRip database
Copy OK
Track 13
Filename F:\EAC Rips\Bill Laswell - 1993 - Deconstruction - The Celluloid Recordings (1)\13 - Material , Busting Out.wav
Pre-gap length 0:00:02.42
Peak level 93.5 %
Track quality 100.0 %
Test CRC 72D92DFE
Copy CRC 72D92DFE
Track not present in AccurateRip database
Copy OK
None of the tracks are present in the AccurateRip database
No errors occurred
End of status report
 
Лог создания рипа CD2
Exact Audio Copy V0.99 prebeta 4 from 23. January 2008
EAC extraction logfile from 17. December 2008, 21:44
Bill Laswell / Deconstruction - The Celluloid Recordings (2)
Used drive : PIONEER DVD-RW DVR-110D Adapter: 2 ID: 1
Read mode : Secure
Utilize accurate stream : Yes
Defeat audio cache : Yes
Make use of C2 pointers : No
Read offset correction : 48
Overread into Lead-In and Lead-Out : No
Fill up missing offset samples with silence : Yes
Delete leading and trailing silent blocks : No
Null samples used in CRC calculations : Yes
Used interface : Native Win32 interface for Win NT & 2000
Gap handling : Appended to previous track
Used output format : User Defined Encoder
Selected bitrate : 128 kBit/s
Quality : High
Add ID3 tag : No
Command line compressor : C:\Program Files\Exact Audio Copy\Flac\flac.exe
Additional command line options : -V -8 -T "artist=%a" -T "title=%t" -T "album=%g" -T "date=%y" -T "tracknumber=%n" -T "genre=%m" %s
TOC of the extracted CD
Track | Start | Length | Start sector | End sector
---------------------------------------------------------
1 | 0:00.50 | 7:34.05 | 50 | 34104
2 | 7:34.55 | 11:54.07 | 34105 | 87661
3 | 19:28.62 | 4:54.65 | 87662 | 109776
4 | 24:23.52 | 6:04.25 | 109777 | 137101
5 | 30:28.02 | 3:43.70 | 137102 | 153896
6 | 34:11.72 | 7:40.63 | 153897 | 188459
7 | 41:52.60 | 7:44.22 | 188460 | 223281
8 | 49:37.07 | 2:04.25 | 223282 | 232606
9 | 51:41.32 | 2:27.50 | 232607 | 243681
10 | 54:09.07 | 4:29.05 | 243682 | 263861
11 | 58:38.12 | 4:56.70 | 263862 | 286131
12 | 63:35.07 | 4:43.50 | 286132 | 307406
Track 1
Filename F:\EAC Rips\Bill Laswell - - Deconstruction - The Celluloid Recordings (2)\01 - The Last Poets , Oh My People.wav
Pre-gap length 0:00:02.66
Peak level 98.8 %
Track quality 100.0 %
Test CRC C90DE689
Copy CRC C90DE689
Track not present in AccurateRip database
Copy OK
Track 2
Filename F:\EAC Rips\Bill Laswell - - Deconstruction - The Celluloid Recordings (2)\02 - Fela Anikulapo Kuti , Cross Examination.wav
Pre-gap length 0:00:01.80
Peak level 98.8 %
Track quality 100.0 %
Test CRC 4058F605
Copy CRC 4058F605
Track not present in AccurateRip database
Copy OK
Track 3
Filename F:\EAC Rips\Bill Laswell - - Deconstruction - The Celluloid Recordings (2)\03 - Ginger Baker , Interlock.wav
Pre-gap length 0:00:01.16
Peak level 98.8 %
Track quality 99.9 %
Test CRC 4C16115F
Copy CRC 4C16115F
Track not present in AccurateRip database
Copy OK
Track 4
Filename F:\EAC Rips\Bill Laswell - - Deconstruction - The Celluloid Recordings (2)\04 - Mandingo , Harima.wav
Pre-gap length 0:00:01.46
Peak level 93.3 %
Track quality 100.0 %
Test CRC 99AA7F48
Copy CRC 99AA7F48
Track not present in AccurateRip database
Copy OK
Track 5
Filename F:\EAC Rips\Bill Laswell - - Deconstruction - The Celluloid Recordings (2)\05 - Peter Brotzman & Bill Laswell , Locomotive.wav
Pre-gap length 0:00:02.02
Peak level 85.1 %
Track quality 100.0 %
Test CRC 9092435D
Copy CRC 9092435D
Track not present in AccurateRip database
Copy OK
Track 6
Filename F:\EAC Rips\Bill Laswell - - Deconstruction - The Celluloid Recordings (2)\06 - Fab Five Freddy , Change the Beat.wav
Pre-gap length 0:00:01.93
Peak level 98.7 %
Track quality 100.0 %
Test CRC 6DB8059F
Copy CRC 6DB8059F
Track not present in AccurateRip database
Copy OK
Track 7
Filename F:\EAC Rips\Bill Laswell - - Deconstruction - The Celluloid Recordings (2)\07 - Shango , Shango Message.wav
Pre-gap length 0:00:02.33
Peak level 98.8 %
Track quality 100.0 %
Test CRC D0C9C73E
Copy CRC D0C9C73E
Track not present in AccurateRip database
Copy OK
Track 8
Filename F:\EAC Rips\Bill Laswell - - Deconstruction - The Celluloid Recordings (2)\08 - Massacre , Legs.wav
Pre-gap length 0:00:02.02
Peak level 75.7 %
Track quality 100.0 %
Test CRC 667DC13C
Copy CRC 667DC13C
Track not present in AccurateRip database
Copy OK
Track 9
Filename F:\EAC Rips\Bill Laswell - - Deconstruction - The Celluloid Recordings (2)\09 - Last Exit , My Balls,Your Chin.wav
Pre-gap length 0:00:01.46
Peak level 75.8 %
Track quality 100.0 %
Test CRC D4818597
Copy CRC D4818597
Track not present in AccurateRip database
Copy OK
Track 10
Filename F:\EAC Rips\Bill Laswell - - Deconstruction - The Celluloid Recordings (2)\10 - Material , Square Dance.wav
Pre-gap length 0:00:01.66
Peak level 92.6 %
Track quality 100.0 %
Test CRC F3D7EE7C
Copy CRC F3D7EE7C
Track not present in AccurateRip database
Copy OK
Track 11
Filename F:\EAC Rips\Bill Laswell - - Deconstruction - The Celluloid Recordings (2)\11 - Tourй Kunda , Natalia.wav
Pre-gap length 0:00:01.86
Peak level 98.8 %
Track quality 100.0 %
Test CRC 0A2B82F3
Copy CRC 0A2B82F3
Track not present in AccurateRip database
Copy OK
Track 12
Filename F:\EAC Rips\Bill Laswell - - Deconstruction - The Celluloid Recordings (2)\12 - Material , O.A.O..wav
Pre-gap length 0:00:01.89
Peak level 97.7 %
Track quality 100.0 %
Test CRC 34BE5B3D
Copy CRC 34BE5B3D
Track not present in AccurateRip database
Copy OK
None of the tracks are present in the AccurateRip database
No errors occurred
End of status report
 
Содержание индексной карты (.CUE) CD1
REM GENRE Jazz
REM DATE 1993
REM DISCID B310CF0D
REM COMMENT "ExactAudioCopy v0.99pb4"
PERFORMER "Bill Laswell"
TITLE "Deconstruction: The Celluloid Recordings CD1"
FILE "01 - Timezone - World Destruction.wav" WAVE
TRACK 01 AUDIO
TITLE "World Destruction"
PERFORMER "Timezone"
PREGAP 00:00:50
INDEX 01 00:00:00
TRACK 02 AUDIO
TITLE "Killing Time"
PERFORMER "Massacre"
INDEX 00 05:32:07
FILE "02 - Massacre - Killing Time.wav" WAVE
INDEX 01 00:00:00
TRACK 03 AUDIO
TITLE "Mean Machine"
PERFORMER "Jalal Nuriddin & D. ST"
INDEX 00 02:50:40
FILE "03 - Jalal Nuriddin & D. ST - Mean Machine.wav" WAVE
INDEX 01 00:00:00
TRACK 04 AUDIO
TITLE "Electric Africa"
PERFORMER "Manu Dibango"
INDEX 00 04:41:25
FILE "04 - Manu Dibango - Electric Africa.wav" WAVE
INDEX 01 00:00:00
TRACK 05 AUDIO
TITLE "Worksong"
PERFORMER "Bill Laswell"
INDEX 00 10:22:12
FILE "05 - Bill Laswell - Worksong.wav" WAVE
INDEX 01 00:00:00
TRACK 06 AUDIO
TITLE "Memories"
PERFORMER "Material"
INDEX 00 07:13:57
FILE "06 - Material - Memories.wav" WAVE
INDEX 01 00:00:00
TRACK 07 AUDIO
TITLE "Death Rattle"
PERFORMER "Peter Brotzman & Bill Laswell"
INDEX 00 03:59:17
FILE "07 - Peter Brotzman & Bill Laswell - Death Rattle.wav" WAVE
INDEX 01 00:00:00
TRACK 08 AUDIO
TITLE "Reduction"
PERFORMER "Material"
INDEX 00 04:26:28
FILE "08 - Material - Reduction.wav" WAVE
INDEX 01 00:00:00
TRACK 09 AUDIO
TITLE "Uprising"
PERFORMER "Bill Laswell"
INDEX 00 05:30:33
FILE "09 - Bill Laswell - Uprising.wav" WAVE
INDEX 01 00:00:00
TRACK 10 AUDIO
TITLE "Boat Peoples"
PERFORMER "Deadline"
INDEX 00 01:05:18
FILE "10 - Deadline - Boat Peoples.wav" WAVE
INDEX 01 00:00:00
TRACK 11 AUDIO
TITLE "For a Few Dollars More"
PERFORMER "Material"
INDEX 00 07:05:17
FILE "11 - Material - For a Few Dollars More.wav" WAVE
INDEX 01 00:00:00
TRACK 12 AUDIO
TITLE "Get Movin'"
PERFORMER "The Last Poets"
INDEX 00 03:51:15
FILE "12 - The Last Poets - Get Movin'.wav" WAVE
INDEX 01 00:00:00
TRACK 13 AUDIO
TITLE "Busting Out"
PERFORMER "Material"
INDEX 00 06:39:20
FILE "13 - Material - Busting Out.wav" WAVE
INDEX 01 00:00:00
 
Содержание индексной карты (.CUE) CD2
REM GENRE Jazz
REM DATE 1993
REM DISCID 9610020C
REM COMMENT "ExactAudioCopy v0.99pb4"
PERFORMER "Bill Laswell"
TITLE "Deconstruction: The Celluloid Recordings CD2"
FILE "01 - The Last Poets - Oh My People.wav" WAVE
TRACK 01 AUDIO
TITLE "Oh My People"
PERFORMER "The Last Poets"
PREGAP 00:00:50
INDEX 01 00:00:00
TRACK 02 AUDIO
TITLE "Cross Examination"
PERFORMER "Fela Anikulapo Kuti"
INDEX 00 07:32:20
FILE "02 - Fela Anikulapo Kuti - Cross Examination.wav" WAVE
INDEX 01 00:00:00
TRACK 03 AUDIO
TITLE "Interlock"
PERFORMER "Ginger Baker"
INDEX 00 11:52:70
FILE "03 - Ginger Baker - Interlock.wav" WAVE
INDEX 01 00:00:00
TRACK 04 AUDIO
TITLE "Harima"
PERFORMER "Mandingo"
INDEX 00 04:53:30
FILE "04 - Mandingo - Harima.wav" WAVE
INDEX 01 00:00:00
TRACK 05 AUDIO
TITLE "Locomotive"
PERFORMER "Peter Brotzman & Bill Laswell"
INDEX 00 06:02:23
FILE "05 - Peter Brotzman & Bill Laswell - Locomotive.wav" WAVE
INDEX 01 00:00:00
TRACK 06 AUDIO
TITLE "Change the Beat"
PERFORMER "Fab Five Freddy"
INDEX 00 03:42:00
FILE "06 - Fab Five Freddy - Change the Beat.wav" WAVE
INDEX 01 00:00:00
TRACK 07 AUDIO
TITLE "Shango Message"
PERFORMER "Shango"
INDEX 00 07:38:38
FILE "07 - Shango - Shango Message.wav" WAVE
INDEX 01 00:00:00
TRACK 08 AUDIO
TITLE "Legs"
PERFORMER "Massacre"
INDEX 00 07:42:20
FILE "08 - Massacre - Legs.wav" WAVE
INDEX 01 00:00:00
TRACK 09 AUDIO
TITLE "My Balls/Your Chin"
PERFORMER "Last Exit"
INDEX 00 02:02:65
FILE "09 - Last Exit - My Balls-Your Chin.wav" WAVE
INDEX 01 00:00:00
TRACK 10 AUDIO
TITLE "Square Dance"
PERFORMER "Material"
INDEX 00 02:26:00
FILE "10 - Material - Square Dance.wav" WAVE
INDEX 01 00:00:00
TRACK 11 AUDIO
TITLE "Natalia"
PERFORMER "Toure Kunda"
INDEX 00 04:27:15
FILE "11 - Toure Kunda - Natalia.wav" WAVE
INDEX 01 00:00:00
TRACK 12 AUDIO
TITLE "O.A.O."
PERFORMER "Material"
INDEX 00 04:55:03
FILE "12 - Material - O.A.O..wav" WAVE
INDEX 01 00:00:00
 
Отчет CUETools CD1
[CUETools log; Date: 03.12.2012 18:28:25; Version: 2.1.4]
Pregap length 00:00:50.
[CTDB TOCID: 3yPFeHwQh3eqESiqNBj1M2Sr9GY-] found.
Track | CTDB Status
1 | (1/1) Accurately ripped
2 | (1/1) Accurately ripped
3 | (1/1) Accurately ripped
4 | (1/1) Accurately ripped
5 | (1/1) Accurately ripped
6 | (1/1) Accurately ripped
7 | (1/1) Accurately ripped
8 | (1/1) Accurately ripped
9 | (1/1) Accurately ripped
10 | (1/1) Accurately ripped
11 | (1/1) Accurately ripped
12 | (1/1) Accurately ripped
13 | (1/1) Accurately ripped
[AccurateRip ID: 0021ca96-01516ea5-b310cf0d] found.
Track [ CRC | V2 ] Status
01 [2d2a583a|f3871494] (4+0/4) Accurately ripped
02 [7e956d4b|c265f886] (4+0/4) Accurately ripped
03 [4697c9e7|0d551946] (4+0/4) Accurately ripped
04 [c24daaab|31ae0fc7] (4+0/4) Accurately ripped
05 [267a91e5|435ad165] (4+0/4) Accurately ripped
06 [36ef36ec|64936e61] (4+0/4) Accurately ripped
07 [377534cb|693eb7a0] (4+0/4) Accurately ripped
08 [a4ac4c6a|fa9fc93d] (4+0/4) Accurately ripped
09 [b20df5e6|8727a0a2] (4+0/4) Accurately ripped
10 [2a81b7c9|53aa542c] (4+0/4) Accurately ripped
11 [8ec85ce4|9b79c988] (4+0/4) Accurately ripped
12 [6c8b6742|0a5f7796] (4+0/4) Accurately ripped
13 [5bfcf353|247beb87] (4+0/4) Accurately ripped
Track Peak [ CRC32 ] [W/O NULL] [ LOG ]
-- 98,8 [3E7766AE] [2B41A2E3]
01 96,9 [942C6A5B] [BF3CB67B] CRC32
02 98,8 [92E48EB2] [24D29978] CRC32
03 98,8 [D0743CA3] [34530327] CRC32
04 98,8 [D905F549] [79E94F63] CRC32
05 98,8 [7A66E3FF] [7BBF8C3A] CRC32
06 93,5 [096B0F83] [54235F02] CRC32
07 90,5 [D6BF7C75] [005CF540] CRC32
08 97,7 [ACAC329C] [E6747244] CRC32
09 98,8 [59C6ADE9] [7B56702A] CRC32
10 95,1 [76FF4166] [D9FB1C17] CRC32
11 86,2 [03765572] [F3B83A74] CRC32
12 98,8 [CAC0B679] [E13738EB] CRC32
13 93,5 [72D92DFE] [C1A6C27D] CRC32
 
Отчет CUETools CD2
[CUETools log; Date: 03.12.2012 18:33:16; Version: 2.1.4]
Pregap length 00:00:50.
[CTDB TOCID: dwSi2weTuG.8Brtza7bi3L3XaPI-] found.
Track | CTDB Status
1 | (1/1) Accurately ripped
2 | (1/1) Accurately ripped
3 | (1/1) Accurately ripped
4 | (1/1) Accurately ripped
5 | (1/1) Accurately ripped
6 | (1/1) Accurately ripped
7 | (1/1) Accurately ripped
8 | (1/1) Accurately ripped
9 | (1/1) Accurately ripped
10 | (1/1) Accurately ripped
11 | (1/1) Accurately ripped
12 | (1/1) Accurately ripped
[AccurateRip ID: 00229b79-013679e2-9610020c] found.
Track [ CRC | V2 ] Status
01 [6d197390|dba5a38f] (4+0/4) Accurately ripped
02 [044d6290|73b24241] (4+0/4) Accurately ripped
03 [7af274ac|344ec936] (4+0/4) Accurately ripped
04 [7361fbfb|78f7c554] (4+0/4) Accurately ripped
05 [0d2be824|52c0f3e3] (4+0/4) Accurately ripped
06 [e84083be|4eebae6a] (4+0/4) Accurately ripped
07 [5c37119b|e9f598c4] (4+0/4) Accurately ripped
08 [1710b9ce|c3bb7de5] (4+0/4) Accurately ripped
09 [ebc3903b|ec6c4a07] (4+0/4) Accurately ripped
10 [e3e84fb2|71b5a6e5] (4+0/4) Accurately ripped
11 [917f7dee|c378b506] (4+0/4) Accurately ripped
12 [60105a3c|0a453144] (4+0/4) Accurately ripped
Track Peak [ CRC32 ] [W/O NULL] [ LOG ]
-- 98,8 [5107EB49] [6EE61143]
01 98,8 [C90DE689] [9CF30F67] CRC32
02 98,8 [4058F605] [6B167B25] CRC32
03 98,8 [4C16115F] [451FE05D] CRC32
04 93,3 [99AA7F48] [10A28EA9] CRC32
05 85,1 [9092435D] [438D81F8] CRC32
06 98,7 [6DB8059F] [D871D54D] CRC32
07 98,8 [D0C9C73E] [3B9C900B] CRC32
08 75,7 [667DC13C] [CE24B934] CRC32
09 75,8 [D4818597] [243D17AD] CRC32
10 92,6 [F3D7EE7C] [28B4F12B] CRC32
11 98,8 [0A2B82F3] [DC77FCDD] CRC32
12 97,7 [34BE5B3D] [3F47DC6A] CRC32
 
Review by Steven McDonald
A more than adequate overview of Bill Laswell's work at Celluloid, where he successfully blurred the division lines between hip-hop, rap, reggae, African music, jazz, and avant-garde, this two-CD anthology includes his work as a producer as well as solo and band recordings. Laswell displays both his strengths and weaknesses (brilliant bass playing, over-reliance on some techno-toys, an ear for combinations, a tendency to lock down in one place). One of his strongest pieces, "World Destruction" (Time Zone, featuring Afrika Bambaataa and John Lydon), kicks the album off, and after that it's a true roller coaster ride that sails through various lineups of Material via Manu Dibango, Massacre, Fela Anukulapo Kuti, the Last Poets, and Ginger Baker, among others. Some listeners will explore further, which they will most likely find beneficial.
05:17
277
Нет комментариев. Ваш будет первым!