Поиск

(Funk/Soul/Vocal Jazz) [CD] Marlena Shaw - 6 albums - 1977-2003, FLAC (tracks+.cue), lossless

(Funk/Soul/Vocal Jazz) [CD] Marlena Shaw - 6 albums - 1977-2003, FLAC (tracks+.cue), lossless
Треклист:
Marlena Shaw / 6 albums (1977-2003)
Жанр: Funk/Soul/Vocal Jazz
Носитель: CD
Страна-производитель диска (релиза): USA
Год издания: 1977-2003
Издатель (лейбл): Columbia, Verve, EMI
Страна исполнителя (группы): USA
Аудиокодек: FLAC (*.flac)
Тип рипа: tracks+.cue
Битрейт аудио: lossless
Продолжительность: 0:43:24+0:48:29+0:37:45+0:53:22+1:10:40+1:11:47
Источник (релизер): Из интернета
Наличие сканов в содержимом раздачи: да
 
1977 - Sweet Beginnings (00:43:24)
Треклист:
01 Pictures & Memories
02 Yu-Ma - Go Away Little Boy
03 The Writing's On The Wall
04 Walk Softly
05 Sweet Beginnings
06 Look At Me Look At You (We' Re Flying)
07 No Deposit No Return
08 Johnny
09 I Think I'll Tell Him
10 Pictures & Memories (Single Version)
 
Лог создания рипа
Exact Audio Copy V1.0 beta 1 from 15. November 2010
EAC extraction logfile from 14. March 2011, 0:38
Marlena Shaw / Sweet Beginnings
Used drive : PHILIPS DVDR1628P1 Adapter: 4 ID: 0
Read mode : Secure
Utilize accurate stream : Yes
Defeat audio cache : Yes
Make use of C2 pointers : No
Read offset correction : 618
Overread into Lead-In and Lead-Out : No
Fill up missing offset samples with silence : Yes
Delete leading and trailing silent blocks : No
Null samples used in CRC calculations : Yes
Used interface : Native Win32 interface for Win NT & 2000
Gap handling : Appended to previous track
Used output format : User Defined Encoder
Selected bitrate : 256 kBit/s
Quality : High
Add ID3 tag : No
Command line compressor : C:\Program Files\FLAC\flac.exe
Additional command line options : -8 -V -T "ARTIST=%a" -T "TITLE=%t" -T "ALBUM=%g" -T "DATE=%y" -T "TRACKNUMBER=%n" -T "TOTALTRACKS=%x" -T "GENRE=%m" -T "ALBUMARTIST=%v" -T "ALBUM ARTIST=%v" -T "COMMENT=EAC Secure Mode, Test & Copy, AccurateRip, FLAC -8" %s
TOC of the extracted CD
Track | Start | Length | Start sector | End sector
---------------------------------------------------------
1 | 0:00.00 | 4:34.32 | 0 | 20581
2 | 4:34.32 | 6:51.25 | 20582 | 51431
3 | 11:25.57 | 3:32.01 | 51432 | 67332
4 | 14:57.58 | 4:31.07 | 67333 | 87664
5 | 19:28.65 | 4:28.64 | 87665 | 107828
6 | 23:57.54 | 4:01.55 | 107829 | 125958
7 | 27:59.34 | 4:24.30 | 125959 | 145788
8 | 32:23.64 | 3:47.33 | 145789 | 162846
9 | 36:11.22 | 3:46.17 | 162847 | 179813
10 | 39:57.39 | 3:26.49 | 179814 | 195312
Track 1
Filename C:\addis gugsa killed my hdd\01 - Pictures & Memories.wav
Pre-gap length 0:00:02.00
Peak level 99.9 %
Extraction speed 1.3 X
Track quality 100.0 %
Test CRC 1AC25511
Copy CRC 1AC25511
Track not present in AccurateRip database
Copy OK
Track 2
Filename C:\addis gugsa killed my hdd\02 - Yu-Ma - Go Away Little Boy.wav
Pre-gap length 0:00:01.00
Peak level 100.0 %
Extraction speed 1.6 X
Track quality 100.0 %
Test CRC 99875CCA
Copy CRC 99875CCA
Track not present in AccurateRip database
Copy OK
Track 3
Filename C:\addis gugsa killed my hdd\03 - The Writing's On The Wall.wav
Pre-gap length 0:00:01.00
Peak level 100.0 %
Extraction speed 1.6 X
Track quality 100.0 %
Test CRC 1F2EEC75
Copy CRC 1F2EEC75
Track not present in AccurateRip database
Copy OK
Track 4
Filename C:\addis gugsa killed my hdd\04 - Walk Softly.wav
Pre-gap length 0:00:01.00
Peak level 99.9 %
Extraction speed 1.8 X
Track quality 100.0 %
Test CRC 78C57E03
Copy CRC 78C57E03
Track not present in AccurateRip database
Copy OK
Track 5
Filename C:\addis gugsa killed my hdd\05 - Sweet Beginnings.wav
Pre-gap length 0:00:01.00
Peak level 100.0 %
Extraction speed 1.9 X
Track quality 100.0 %
Test CRC 74A95807
Copy CRC 74A95807
Track not present in AccurateRip database
Copy OK
Track 6
Filename C:\addis gugsa killed my hdd\06 - Look At Me Look At You (We' Re Flying).wav
Pre-gap length 0:00:01.00
Peak level 100.0 %
Extraction speed 1.8 X
Track quality 99.9 %
Test CRC 60849259
Copy CRC 60849259
Track not present in AccurateRip database
Copy OK
Track 7
Filename C:\addis gugsa killed my hdd\07 - No Deposit No Return.wav
Pre-gap length 0:00:01.00
Peak level 100.0 %
Extraction speed 2.2 X
Track quality 100.0 %
Test CRC 5394DCE4
Copy CRC 5394DCE4
Track not present in AccurateRip database
Copy OK
Track 8
Filename C:\addis gugsa killed my hdd\08 - Johnny.wav
Pre-gap length 0:00:01.00
Peak level 100.0 %
Extraction speed 1.9 X
Track quality 99.9 %
Test CRC AFEEF984
Copy CRC AFEEF984
Track not present in AccurateRip database
Copy OK
Track 9
Filename C:\addis gugsa killed my hdd\09 - I Think I'll Tell Him.wav
Pre-gap length 0:00:01.00
Peak level 100.0 %
Extraction speed 2.3 X
Track quality 100.0 %
Test CRC 0174C3C2
Copy CRC 0174C3C2
Track not present in AccurateRip database
Copy OK
Track 10
Filename C:\addis gugsa killed my hdd\10 - Pictures & Memories (Single Version).wav
Pre-gap length 0:00:01.00
Peak level 99.9 %
Extraction speed 2.3 X
Track quality 100.0 %
Test CRC 25571616
Copy CRC 25571616
Track not present in AccurateRip database
Copy OK
None of the tracks are present in the AccurateRip database
No errors occurred
End of status report
==== Log checksum C282884296C5608CA5DC67041BEEF82184974178C53C7AA4B09CFB306D4AF7BA ====
 
Содержание индексной карты (.CUE)
REM GENRE Soul
REM DATE 1977
REM DISCID A10A2C0A
REM COMMENT "ExactAudioCopy v1.0b1"
PERFORMER "Marlena Shaw"
TITLE "Sweet Beginnings"
FILE "01 Pictures & Memories.wav" WAVE
TRACK 01 AUDIO
TITLE "Pictures & Memories"
PERFORMER "Marlena Shaw"
INDEX 01 00:00:00
TRACK 02 AUDIO
TITLE "Yu-Ma - Go Away Little Boy"
PERFORMER "Marlena Shaw"
FLAGS DCP
INDEX 00 04:33:32
FILE "02 Yu-Ma - Go Away Little Boy.wav" WAVE
INDEX 01 00:00:00
TRACK 03 AUDIO
TITLE "The Writing's On The Wall"
PERFORMER "Marlena Shaw"
FLAGS DCP
INDEX 00 06:50:25
FILE "03 The Writing's On The Wall.wav" WAVE
INDEX 01 00:00:00
TRACK 04 AUDIO
TITLE "Walk Softly"
PERFORMER "Marlena Shaw"
FLAGS DCP
INDEX 00 03:31:01
FILE "04 Walk Softly.wav" WAVE
INDEX 01 00:00:00
TRACK 05 AUDIO
TITLE "Sweet Beginnings"
PERFORMER "Marlena Shaw"
FLAGS DCP
INDEX 00 04:30:07
FILE "05 Sweet Beginnings.wav" WAVE
INDEX 01 00:00:00
TRACK 06 AUDIO
TITLE "Look At Me Look At You (We' Re Flying)"
PERFORMER "Marlena Shaw"
FLAGS DCP
INDEX 00 04:27:64
FILE "06 Look At Me Look At You (We' Re Flying).wav" WAVE
INDEX 01 00:00:00
TRACK 07 AUDIO
TITLE "No Deposit No Return"
PERFORMER "Marlena Shaw"
FLAGS DCP
INDEX 00 04:00:55
FILE "07 No Deposit No Return.wav" WAVE
INDEX 01 00:00:00
TRACK 08 AUDIO
TITLE "Johnny"
PERFORMER "Marlena Shaw"
FLAGS DCP
INDEX 00 04:23:30
FILE "08 Johnny.wav" WAVE
INDEX 01 00:00:00
TRACK 09 AUDIO
TITLE "I Think I'll Tell Him"
PERFORMER "Marlena Shaw"
FLAGS DCP
INDEX 00 03:46:33
FILE "09 I Think I'll Tell Him.wav" WAVE
INDEX 01 00:00:00
TRACK 10 AUDIO
TITLE "Pictures & Memories (Single Version)"
PERFORMER "Marlena Shaw"
FLAGS DCP
INDEX 00 03:45:17
FILE "10 Pictures & Memories (Single Version).wav" WAVE
INDEX 01 00:00:00
 
1978 - Acting Up (00:48:29)
Треклист:
01 More
02 Moonrise
03 Rhythm Of Love
04 Places
05 I Wonder
06 You Bring Out The Best In Me
07 Dreamin'
08 I'm Back For More
09 Mamma Tried
10 Theme From Looking For Mr Goodbar
11 Places (Single)
12 Theme From Looking For Mr. Goodbar (Don't Ask To Stay Until Tomorrow)
 
Лог создания рипа
Exact Audio Copy V1.0 beta 1 from 15. November 2010
EAC extraction logfile from 21. November 2011, 2:36
Marlena Shaw / Acting Up
Used drive : PHILIPS DVDR1628P1 Adapter: 4 ID: 0
Read mode : Secure
Utilize accurate stream : Yes
Defeat audio cache : Yes
Make use of C2 pointers : No
Read offset correction : 618
Overread into Lead-In and Lead-Out : No
Fill up missing offset samples with silence : Yes
Delete leading and trailing silent blocks : No
Null samples used in CRC calculations : Yes
Used interface : Native Win32 interface for Win NT & 2000
Gap handling : Appended to previous track
Used output format : User Defined Encoder
Selected bitrate : 256 kBit/s
Quality : High
Add ID3 tag : No
Command line compressor : C:\Program Files\FLAC\flac.exe
Additional command line options : -8 -V -T "ARTIST=%a" -T "TITLE=%t" -T "ALBUM=%g" -T "DATE=%y" -T "TRACKNUMBER=%n" -T "TOTALTRACKS=%x" -T "GENRE=%m" -T "ALBUMARTIST=%v" -T "ALBUM ARTIST=%v" -T "COMMENT=EAC Secure Mode, Test & Copy, AccurateRip, FLAC -8" %s
TOC of the extracted CD
Track | Start | Length | Start sector | End sector
---------------------------------------------------------
1 | 0:00.00 | 3:48.62 | 0 | 17161
2 | 3:48.62 | 4:23.71 | 17162 | 36957
3 | 8:12.58 | 3:48.71 | 36958 | 54128
4 | 12:01.54 | 4:05.67 | 54129 | 72570
5 | 16:07.46 | 4:25.46 | 72571 | 92491
6 | 20:33.17 | 4:41.62 | 92492 | 113628
7 | 25:15.04 | 4:26.22 | 113629 | 133600
8 | 29:41.26 | 4:10.64 | 133601 | 152414
9 | 33:52.15 | 3:25.59 | 152415 | 167848
10 | 37:17.74 | 3:31.61 | 167849 | 183734
11 | 40:49.60 | 3:28.01 | 183735 | 199335
12 | 44:17.61 | 4:11.00 | 199336 | 218160
Track 1
Filename C:\addis gugsa killed my hdd\01 - More.wav
Pre-gap length 0:00:02.00
Peak level 100.0 %
Extraction speed 1.3 X
Track quality 100.0 %
Test CRC F7BEE9B8
Copy CRC F7BEE9B8
Accurately ripped (confidence 1) [7ABD2CEC]
Copy OK
Track 2
Filename C:\addis gugsa killed my hdd\02 - Moonrise.wav
Pre-gap length 0:00:01.56
Peak level 100.0 %
Extraction speed 1.5 X
Track quality 100.0 %
Test CRC 11380661
Copy CRC 11380661
Accurately ripped (confidence 1) [D6199385]
Copy OK
Track 3
Filename C:\addis gugsa killed my hdd\03 - Rhythm Of Love.wav
Pre-gap length 0:00:01.56
Peak level 100.0 %
Extraction speed 1.6 X
Track quality 100.0 %
Test CRC 1CAEBC44
Copy CRC 1CAEBC44
Accurately ripped (confidence 1) [6CA09A19]
Copy OK
Track 4
Filename C:\addis gugsa killed my hdd\04 - Places.wav
Pre-gap length 0:00:01.56
Peak level 100.0 %
Extraction speed 1.7 X
Track quality 100.0 %
Test CRC 7C876A43
Copy CRC 7C876A43
Accurately ripped (confidence 1) [A0728FFB]
Copy OK
Track 5
Filename C:\addis gugsa killed my hdd\05 - I Wonder.wav
Pre-gap length 0:00:01.56
Peak level 100.0 %
Extraction speed 1.6 X
Track quality 99.9 %
Test CRC E2317CF7
Copy CRC E2317CF7
Accurately ripped (confidence 1) [C89ABFE1]
Copy OK
Track 6
Filename C:\addis gugsa killed my hdd\06 - You Bring Out The Best In Me.wav
Pre-gap length 0:00:01.56
Peak level 100.0 %
Extraction speed 2.0 X
Track quality 100.0 %
Test CRC 5CAF052E
Copy CRC 5CAF052E
Accurately ripped (confidence 1) [FA5FB905]
Copy OK
Track 7
Filename C:\addis gugsa killed my hdd\07 - Dreamin'.wav
Pre-gap length 0:00:01.56
Peak level 100.0 %
Extraction speed 1.9 X
Track quality 99.9 %
Test CRC 89CBF64F
Copy CRC 89CBF64F
Accurately ripped (confidence 1) [4A116B00]
Copy OK
Track 8
Filename C:\addis gugsa killed my hdd\08 - I'm Back For More.wav
Pre-gap length 0:00:01.56
Peak level 100.0 %
Extraction speed 2.2 X
Track quality 100.0 %
Test CRC 3577F596
Copy CRC 3577F596
Accurately ripped (confidence 1) [94D08AF1]
Copy OK
Track 9
Filename C:\addis gugsa killed my hdd\09 - Mamma Tried.wav
Pre-gap length 0:00:01.56
Peak level 100.0 %
Extraction speed 2.2 X
Track quality 100.0 %
Test CRC 20D6977B
Copy CRC 20D6977B
Accurately ripped (confidence 1) [9FA18717]
Copy OK
Track 10
Filename C:\addis gugsa killed my hdd\10 - Theme From Looking For Mr Goodbar.wav
Pre-gap length 0:00:01.56
Peak level 100.0 %
Extraction speed 2.3 X
Track quality 100.0 %
Test CRC 38192CDD
Copy CRC 38192CDD
Accurately ripped (confidence 1) [1F7E7CD3]
Copy OK
Track 11
Filename C:\addis gugsa killed my hdd\11 - Places (Single).wav
Pre-gap length 0:00:02.74
Peak level 97.7 %
Extraction speed 2.4 X
Track quality 100.0 %
Test CRC D5A040B7
Copy CRC D5A040B7
Accurately ripped (confidence 1) [CE8E551A]
Copy OK
Track 12
Filename C:\addis gugsa killed my hdd\12 - Theme From Looking For Mr Goodbar.wav
Pre-gap length 0:00:02.00
Peak level 100.0 %
Extraction speed 2.5 X
Track quality 100.0 %
Test CRC 72923E54
Copy CRC 72923E54
Accurately ripped (confidence 1) [C7375113]
Copy OK
All tracks accurately ripped
No errors occurred
End of status report
==== Log checksum B8FBA6476FA405F8495698F087C1053395C4F9F7AE3ACED02DEAB0C33AEEB4E9 ====
 
Содержание индексной карты (.CUE)
REM GENRE Soul
REM DATE 2011
REM DISCID A30B5C0C
REM COMMENT "ExactAudioCopy v1.0b1"
PERFORMER "Marlena Shaw"
TITLE "Acting Up"
FILE "01 More.wav" WAVE
TRACK 01 AUDIO
TITLE "More"
PERFORMER "Marlena Shaw"
FLAGS DCP
INDEX 01 00:00:00
TRACK 02 AUDIO
TITLE "Moonrise"
PERFORMER "Marlena Shaw"
FLAGS DCP
INDEX 00 03:47:06
FILE "02 Moonrise.wav" WAVE
INDEX 01 00:00:00
TRACK 03 AUDIO
TITLE "Rhythm Of Love"
PERFORMER "Marlena Shaw"
FLAGS DCP
INDEX 00 04:22:15
FILE "03 Rhythm Of Love.wav" WAVE
INDEX 01 00:00:00
TRACK 04 AUDIO
TITLE "Places"
PERFORMER "Marlena Shaw"
FLAGS DCP
INDEX 00 03:47:15
FILE "04 Places.wav" WAVE
INDEX 01 00:00:00
TRACK 05 AUDIO
TITLE "I Wonder"
PERFORMER "Marlena Shaw"
FLAGS DCP
INDEX 00 04:04:11
FILE "05 I Wonder.wav" WAVE
INDEX 01 00:00:00
TRACK 06 AUDIO
TITLE "You Bring Out The Best In Me"
PERFORMER "Marlena Shaw"
FLAGS DCP
INDEX 00 04:23:65
FILE "06 You Bring Out The Best In Me.wav" WAVE
INDEX 01 00:00:00
TRACK 07 AUDIO
TITLE "Dreamin'"
PERFORMER "Marlena Shaw"
FLAGS DCP
INDEX 00 04:40:06
FILE "07 Dreamin'.wav" WAVE
INDEX 01 00:00:00
TRACK 08 AUDIO
TITLE "I'm Back For More"
PERFORMER "Marlena Shaw"
FLAGS DCP
INDEX 00 04:24:41
FILE "08 I'm Back For More.wav" WAVE
INDEX 01 00:00:00
TRACK 09 AUDIO
TITLE "Mamma Tried"
PERFORMER "Marlena Shaw"
FLAGS DCP
INDEX 00 04:09:08
FILE "09 Mamma Tried.wav" WAVE
INDEX 01 00:00:00
TRACK 10 AUDIO
TITLE "Theme From Looking For Mr Goodbar"
PERFORMER "Marlena Shaw"
FLAGS DCP
INDEX 00 03:24:03
FILE "10 Theme From Looking For Mr Goodbar.wav" WAVE
INDEX 01 00:00:00
TRACK 11 AUDIO
TITLE "Places (Single)"
PERFORMER "Marlena Shaw"
FLAGS DCP
INDEX 00 03:28:62
FILE "11 Places (Single).wav" WAVE
INDEX 01 00:00:00
TRACK 12 AUDIO
TITLE "Theme From Looking For Mr. Goodbar (Don't Ask To Stay Until Tomorrow)"
PERFORMER "Marlena Shaw"
FLAGS DCP
INDEX 00 03:26:01
FILE "12 Theme From Looking For Mr. Goodbar (Don't Ask To Stay Until Tomorrow).wav" WAVE
INDEX 01 00:00:00
 
1979 - Take A Bite (00:37:45)
Треклист:
01 It Was A Very Good Year - I'm A Foster Child
02 Love Dancin'
03 It Was A Very Good Year - I'm A Foster Child
04 I Thank You
05 It Was A Very Good Year - I'm A Foster Child
06 Touch Me In The Morning
07 Shaw Biz - Suddenly It's How I Like To Feel - Shaw Biz
08 No One Yet
09 Haven't We Been In Love Before
10 I'll Be Your Friend
 
Лог создания рипа
Exact Audio Copy V0.99 prebeta 5 from 4. May 2009
EAC extraction logfile from 16. January 2010, 20:37
Marlena Shaw / Take A Bite
Used drive : _NEC DVD_RW ND-3520AW Adapter: 2 ID: 0
Read mode : Secure
Utilize accurate stream : Yes
Defeat audio cache : Yes
Make use of C2 pointers : No
Read offset correction : 48
Overread into Lead-In and Lead-Out : No
Fill up missing offset samples with silence : Yes
Delete leading and trailing silent blocks : No
Null samples used in CRC calculations : Yes
Used interface : Native Win32 interface for Win NT & 2000
Gap handling : Appended to previous track
Used output format : User Defined Encoder
Selected bitrate : 896 kBit/s
Quality : High
Add ID3 tag : No
Command line compressor : D:\Programme\FLAC\flac.exe
Additional command line options : -V -8 -T "artist=%a" -T "title=%t" -T "album=%g" -T "date=%y" -T "tracknumber=%n" -T "genre=%m" %s
TOC of the extracted CD
Track | Start | Length | Start sector | End sector
---------------------------------------------------------
1 | 0:00.00 | 3:25.45 | 0 | 15419
2 | 3:25.45 | 4:34.42 | 15420 | 36011
3 | 8:00.12 | 0:40.53 | 36012 | 39064
4 | 8:40.65 | 3:16.30 | 39065 | 53794
5 | 11:57.20 | 0:40.55 | 53795 | 56849
6 | 12:38.00 | 6:02.32 | 56850 | 84031
7 | 18:40.32 | 5:36.40 | 84032 | 109271
8 | 24:16.72 | 5:19.55 | 109272 | 133251
9 | 29:36.52 | 4:09.60 | 133252 | 151986
10 | 33:46.37 | 3:58.45 | 151987 | 169881
Track 1
Filename D:\Marlena Shaw - Take A Bite\01. Marlena Shaw - It Was A Very Good Year,I'm A Foster Child.wav
Pre-gap length 0:00:02.00
Peak level 99.5 %
Track quality 100.0 %
Test CRC B2FF9B76
Copy CRC B2FF9B76
Track not present in AccurateRip database
Copy OK
Track 2
Filename D:\Marlena Shaw - Take A Bite\02. Marlena Shaw - Love Dancin'.wav
Peak level 99.9 %
Track quality 100.0 %
Test CRC 11BFBA55
Copy CRC 11BFBA55
Track not present in AccurateRip database
Copy OK
Track 3
Filename D:\Marlena Shaw - Take A Bite\03. Marlena Shaw - It Was A Very Good Year,I'm A Foster Child.wav
Peak level 98.6 %
Track quality 100.0 %
Test CRC 22F5EC0C
Copy CRC 22F5EC0C
Track not present in AccurateRip database
Copy OK
Track 4
Filename D:\Marlena Shaw - Take A Bite\04. Marlena Shaw - I Thank You.wav
Peak level 100.0 %
Track quality 100.0 %
Test CRC A7C8E38E
Copy CRC A7C8E38E
Track not present in AccurateRip database
Copy OK
Track 5
Filename D:\Marlena Shaw - Take A Bite\05. Marlena Shaw - It Was A Very Good Year,I'm A Foster Child.wav
Peak level 100.0 %
Track quality 100.0 %
Test CRC 6BA222B4
Copy CRC 6BA222B4
Track not present in AccurateRip database
Copy OK
Track 6
Filename D:\Marlena Shaw - Take A Bite\06. Marlena Shaw - Touch Me In The Morning.wav
Peak level 99.6 %
Track quality 100.0 %
Test CRC 6395E6FE
Copy CRC 6395E6FE
Track not present in AccurateRip database
Copy OK
Track 7
Filename D:\Marlena Shaw - Take A Bite\07. Marlena Shaw - Shaw Biz + Suddenly It's How I Like To Feel.wav
Peak level 100.0 %
Track quality 100.0 %
Test CRC 0967CC48
Copy CRC 0967CC48
Track not present in AccurateRip database
Copy OK
Track 8
Filename D:\Marlena Shaw - Take A Bite\08. Marlena Shaw - No One Yet.wav
Peak level 99.8 %
Track quality 100.0 %
Test CRC 7D809610
Copy CRC 7D809610
Track not present in AccurateRip database
Copy OK
Track 9
Filename D:\Marlena Shaw - Take A Bite\09. Marlena Shaw - Haven't We Been In Love Before.wav
Peak level 99.9 %
Track quality 100.0 %
Test CRC B2D4E31E
Copy CRC B2D4E31E
Track not present in AccurateRip database
Copy OK
Track 10
Filename D:\Marlena Shaw - Take A Bite\10. Marlena Shaw - I'll Be Your Friend.wav
Peak level 92.6 %
Track quality 100.0 %
Test CRC 58BAB947
Copy CRC 58BAB947
Track not present in AccurateRip database
Copy OK
None of the tracks are present in the AccurateRip database
No errors occurred
End of status report
 
Содержание индексной карты (.CUE)
REM GENRE Disco
REM DATE 1979
REM DISCID 7B08D90A
REM COMMENT "ExactAudioCopy v0.99pb5"
PERFORMER "Marlena Shaw"
TITLE "Take A Bite"
FILE "01 It Was A Very Good Year - I'm A Foster Child.wav" WAVE
TRACK 01 AUDIO
TITLE "It Was A Very Good Year/I'm A Foster Child"
PERFORMER "Marlena Shaw"
INDEX 01 00:00:00
FILE "02 Love Dancin'.wav" WAVE
TRACK 02 AUDIO
TITLE "Love Dancin'"
PERFORMER "Marlena Shaw"
INDEX 01 00:00:00
FILE "03 It Was A Very Good Year - I'm A Foster Child.wav" WAVE
TRACK 03 AUDIO
TITLE "It Was A Very Good Year/I'm A Foster Child"
PERFORMER "Marlena Shaw"
INDEX 01 00:00:00
FILE "04 I Thank You.wav" WAVE
TRACK 04 AUDIO
TITLE "I Thank You"
PERFORMER "Marlena Shaw"
INDEX 01 00:00:00
FILE "05 It Was A Very Good Year - I'm A Foster Child.wav" WAVE
TRACK 05 AUDIO
TITLE "It Was A Very Good Year/I'm A Foster Child"
PERFORMER "Marlena Shaw"
INDEX 01 00:00:00
FILE "06 Touch Me In The Morning.wav" WAVE
TRACK 06 AUDIO
TITLE "Touch Me In The Morning"
PERFORMER "Marlena Shaw"
INDEX 01 00:00:00
FILE "07 Shaw Biz - Suddenly It's How I Like To Feel - Shaw Biz.wav" WAVE
TRACK 07 AUDIO
TITLE "Shaw Biz + Suddenly It's How I Like To Feel"
PERFORMER "Marlena Shaw"
INDEX 01 00:00:00
FILE "08 No One Yet.wav" WAVE
TRACK 08 AUDIO
TITLE "No One Yet"
PERFORMER "Marlena Shaw"
INDEX 01 00:00:00
FILE "09 Haven't We Been In Love Before.wav" WAVE
TRACK 09 AUDIO
TITLE "Haven't We Been In Love Before"
PERFORMER "Marlena Shaw"
INDEX 01 00:00:00
FILE "10 I'll Be Your Friend.wav" WAVE
TRACK 10 AUDIO
TITLE "I'll Be Your Friend"
PERFORMER "Marlena Shaw"
INDEX 01 00:00:00
 
1987 - It Is Love (00:53:22)
Треклист:
01 Day In-Day Out
02 It Is Love
03 Nobody Knows You When You're Down And Out,That's Life
04 Unforgettable
05 At Last
06 Them There Eyes
07 Lover Of The Simple Things
08 On The Street Where You Live
09 It Might As Well Be Spring
10 Go Away Little Boy
11 Rockin' Chair Blues
 
Лог создания рипа
Exact Audio Copy V1.0 beta 3 from 29. August 2011
EAC extraction logfile from 30. April 2013, 19:30
Marlena Shaw / It Is Love (Recorded Live At Vine St.)
Used drive : TSSTcorpCDDVDW SN-208BB Adapter: 0 ID: 0
Read mode : Secure
Utilize accurate stream : Yes
Defeat audio cache : Yes
Make use of C2 pointers : No
Read offset correction : 6
Overread into Lead-In and Lead-Out : No
Fill up missing offset samples with silence : Yes
Delete leading and trailing silent blocks : No
Null samples used in CRC calculations : Yes
Used interface : Native Win32 interface for Win NT & 2000
Gap handling : Appended to previous track
Used output format : User Defined Encoder
Selected bitrate : 1024 kBit/s
Quality : High
Add ID3 tag : No
Command line compressor : C:\Program Files (x86)\FLAC\flac.exe
Additional command line options : -8 -V -T "ARTIST=%artist%" -T "TITLE=%title%" -T "ALBUM=%albumtitle%" -T "DATE=%year%" -T "TRACKNUMBER=%tracknr%" -T "GENRE=%genre%" -T "PERFORMER=%albuminterpret%" -T "COMPOSER=%composer%" %haslyrics%--tag-from-file=LYRICS="%lyricsfile%"%haslyrics% -T "ALBUMARTIST=%albumartist%" -T "DISCNUMBER=%cdnumber%" -T "TOTALDISCS=%totalcds%" -T "TOTALTRACKS=%numtracks%" -T "COMMENT=%comment%" %source% -o %dest%
TOC of the extracted CD
Track | Start | Length | Start sector | End sector
---------------------------------------------------------
1 | 0:00.33 | 3:15.00 | 33 | 14657
2 | 3:15.33 | 4:21.12 | 14658 | 34244
3 | 7:36.45 | 5:08.00 | 34245 | 57344
4 | 12:44.45 | 4:06.63 | 57345 | 75857
5 | 16:51.33 | 4:07.37 | 75858 | 94419
6 | 20:58.70 | 4:13.63 | 94420 | 113457
7 | 25:12.58 | 4:27.62 | 113458 | 133544
8 | 29:40.45 | 3:25.38 | 133545 | 148957
9 | 33:06.08 | 5:33.50 | 148958 | 173982
10 | 38:39.58 | 9:31.37 | 173983 | 216844
11 | 48:11.20 | 5:11.00 | 216845 | 240169
Track 1
Filename H:\Rips\Marlena Shaw - It Is Love (Recorded Live At Vine St.) [1987]\01 - Day In-Day Out.wav
Pre-gap length 0:00:02.44
Peak level 60.3 %
Extraction speed 1.6 X
Track quality 100.0 %
Test CRC 3C60001E
Copy CRC 3C60001E
Accurately ripped (confidence 2) [928F39B5] (AR v1)
Copy OK
Track 2
Filename H:\Rips\Marlena Shaw - It Is Love (Recorded Live At Vine St.) [1987]\02 - It Is Love.wav
Pre-gap length 0:00:00.65
Peak level 94.4 %
Extraction speed 1.9 X
Track quality 100.0 %
Test CRC DD901C67
Copy CRC DD901C67
Accurately ripped (confidence 2) [C6F3DEB0] (AR v1)
Copy OK
Track 3
Filename H:\Rips\Marlena Shaw - It Is Love (Recorded Live At Vine St.) [1987]\03 - Nobody Knows You When You're Down And Out,That's Life.wav
Pre-gap length 0:00:00.48
Peak level 94.7 %
Extraction speed 2.1 X
Track quality 100.0 %
Test CRC D35215BC
Copy CRC D35215BC
Accurately ripped (confidence 2) [A2BFDF8E] (AR v1)
Copy OK
Track 4
Filename H:\Rips\Marlena Shaw - It Is Love (Recorded Live At Vine St.) [1987]\04 - Unforgettable.wav
Pre-gap length 0:00:00.16
Peak level 100.0 %
Extraction speed 2.2 X
Track quality 100.0 %
Test CRC 97B6BD7C
Copy CRC 97B6BD7C
Accurately ripped (confidence 2) [15942933] (AR v1)
Copy OK
Track 5
Filename H:\Rips\Marlena Shaw - It Is Love (Recorded Live At Vine St.) [1987]\05 - At Last.wav
Pre-gap length 0:00:00.65
Peak level 35.4 %
Extraction speed 2.4 X
Track quality 100.0 %
Test CRC 2B48E9A6
Copy CRC 2B48E9A6
Accurately ripped (confidence 2) [05A25922] (AR v1)
Copy OK
Track 6
Filename H:\Rips\Marlena Shaw - It Is Love (Recorded Live At Vine St.) [1987]\06 - Them There Eyes.wav
Peak level 100.0 %
Extraction speed 2.5 X
Track quality 100.0 %
Test CRC 11A6F3FC
Copy CRC 11A6F3FC
Accurately ripped (confidence 2) [42A1AD43] (AR v1)
Copy OK
Track 7
Filename H:\Rips\Marlena Shaw - It Is Love (Recorded Live At Vine St.) [1987]\07 - Lover Of The Simple Things.wav
Pre-gap length 0:00:00.17
Peak level 76.6 %
Extraction speed 2.7 X
Track quality 100.0 %
Test CRC E250F087
Copy CRC E250F087
Accurately ripped (confidence 2) [92AB1AB3] (AR v1)
Copy OK
Track 8
Filename H:\Rips\Marlena Shaw - It Is Love (Recorded Live At Vine St.) [1987]\08 - On The Street Where You Live.wav
Pre-gap length 0:00:01.00
Peak level 81.0 %
Extraction speed 2.3 X
Track quality 99.9 %
Test CRC B660DB1C
Copy CRC B660DB1C
Accurately ripped (confidence 2) [0125BF18] (AR v1)
Copy OK
Track 9
Filename H:\Rips\Marlena Shaw - It Is Love (Recorded Live At Vine St.) [1987]\09 - It Might As Well Be Spring.wav
Pre-gap length 0:00:00.50
Peak level 67.5 %
Extraction speed 2.7 X
Track quality 99.9 %
Test CRC DE080F06
Copy CRC DE080F06
Accurately ripped (confidence 2) [4867CD48] (AR v1)
Copy OK
Track 10
Filename H:\Rips\Marlena Shaw - It Is Love (Recorded Live At Vine St.) [1987]\10 - Go Away Little Boy.wav
Pre-gap length 0:00:02.66
Peak level 71.9 %
Extraction speed 3.3 X
Track quality 100.0 %
Test CRC 883F33F6
Copy CRC 883F33F6
Accurately ripped (confidence 2) [78F63745] (AR v1)
Copy OK
Track 11
Filename H:\Rips\Marlena Shaw - It Is Love (Recorded Live At Vine St.) [1987]\11 - Rockin' Chair Blues.wav
Pre-gap length 0:00:01.42
Peak level 79.7 %
Extraction speed 3.3 X
Track quality 100.0 %
Test CRC 14B5062B
Copy CRC 14B5062B
Accurately ripped (confidence 2) [375AC64F] (AR v1)
Copy OK
All tracks accurately ripped
No errors occurred
End of status report
==== Log checksum B7A6F4C0E18897CFBA70361FBEFE55D0939B01E176188CC7402D662D30D6CD46 ====
 
Содержание индексной карты (.CUE)
REM GENRE Soul
REM DATE 1987
REM DISCID 9A0C820B
REM COMMENT "ExactAudioCopy v1.0b3"
PERFORMER "Marlena Shaw"
TITLE "It Is Love (Recorded Live At Vine St.) "
FILE "01 Day In-Day Out.flac" WAVE
TRACK 01 AUDIO
TITLE "Day In-Day Out"
PERFORMER "Marlena Shaw"
PREGAP 00:00:33
INDEX 01 00:00:00
TRACK 02 AUDIO
TITLE "It Is Love"
PERFORMER "Marlena Shaw"
INDEX 00 03:14:26
FILE "02 It Is Love.flac" WAVE
INDEX 01 00:00:00
TRACK 03 AUDIO
TITLE "Nobody Knows You When You're Down And Out/That's Life"
PERFORMER "Marlena Shaw"
INDEX 00 04:20:51
FILE "03 Nobody Knows You When You're Down And Out,That's Life.flac" WAVE
INDEX 01 00:00:00
TRACK 04 AUDIO
TITLE "Unforgettable"
PERFORMER "Marlena Shaw"
INDEX 00 05:07:63
FILE "04 Unforgettable.flac" WAVE
INDEX 01 00:00:00
TRACK 05 AUDIO
TITLE "At Last"
PERFORMER "Marlena Shaw"
INDEX 00 04:06:14
FILE "05 At Last.flac" WAVE
INDEX 01 00:00:00
FILE "06 Them There Eyes.flac" WAVE
TRACK 06 AUDIO
TITLE "Them There Eyes"
PERFORMER "Marlena Shaw"
INDEX 01 00:00:00
TRACK 07 AUDIO
TITLE "Lover Of The Simple Things"
PERFORMER "Marlena Shaw"
INDEX 00 04:13:50
FILE "07 Lover Of The Simple Things.flac" WAVE
INDEX 01 00:00:00
TRACK 08 AUDIO
TITLE "On The Street Where You Live"
PERFORMER "Marlena Shaw"
INDEX 00 04:26:62
FILE "08 On The Street Where You Live.flac" WAVE
INDEX 01 00:00:00
TRACK 09 AUDIO
TITLE "It Might As Well Be Spring"
PERFORMER "Marlena Shaw"
INDEX 00 03:25:00
FILE "09 It Might As Well Be Spring.flac" WAVE
INDEX 01 00:00:00
TRACK 10 AUDIO
TITLE "Go Away Little Boy"
PERFORMER "Marlena Shaw"
INDEX 00 05:31:00
FILE "10 Go Away Little Boy.flac" WAVE
INDEX 01 00:00:00
TRACK 11 AUDIO
TITLE "Rockin' Chair Blues"
PERFORMER "Marlena Shaw"
INDEX 00 09:30:05
FILE "11 Rockin' Chair Blues.flac" WAVE
INDEX 01 00:00:00
 
1999 - Go Away Little Boy (01:10:40)
Треклист:
01 Yu-Ma,Go Away Little Boy
02 I Think I'll Tell Him
03 Rhythm Of Love
04 Moonrise
05 I Wonder
06 Shaw Biz, Suddenly It's How I'd Like To Feel
07 I'm Back For More
08 Sweet Beginnings
09 More
10 Walk Softly
11 No One Yet
12 Pictures and Memories
13 Love Dancin'
14 Touch Me In The Morning
 
Лог создания рипа
Exact Audio Copy V0.99 prebeta 4 from 23. January 2008
EAC extraction logfile from 17. June 2010, 13:21
Marlena Shaw / The Sass and Soul of Marlena Shaw, Go Away Little Boy
Used drive : PLEXTOR DVDR PX-750A Adapter: 7 ID: 0
Read mode : Secure
Utilize accurate stream : Yes
Defeat audio cache : Yes
Make use of C2 pointers : No
Read offset correction : 102
Overread into Lead-In and Lead-Out : No
Fill up missing offset samples with silence : Yes
Delete leading and trailing silent blocks : No
Null samples used in CRC calculations : Yes
Used interface : Native Win32 interface for Win NT & 2000
Gap handling : Appended to previous track
Used output format : User Defined Encoder
Selected bitrate : 1024 kBit/s
Quality : High
Add ID3 tag : No
Command line compressor : C:\Program Files\FLAC\flac.exe
Additional command line options : -V -8 -T "artist=%a" -T "title=%t" -T "album=%g" -T "date=%y" -T "tracknumber=%n" -T "genre=%m" %s
TOC of the extracted CD
Track | Start | Length | Start sector | End sector
---------------------------------------------------------
1 | 0:00.00 | 6:51.05 | 0 | 30829
2 | 6:51.05 | 3:45.65 | 30830 | 47769
3 | 10:36.70 | 3:45.45 | 47770 | 64689
4 | 14:22.40 | 4:20.50 | 64690 | 84239
5 | 18:43.15 | 4:28.22 | 84240 | 104361
6 | 23:11.37 | 5:34.43 | 104362 | 129454
7 | 28:46.05 | 4:06.25 | 129455 | 147929
8 | 32:52.30 | 4:29.05 | 147930 | 168109
9 | 37:21.35 | 3:45.65 | 168110 | 185049
10 | 41:07.25 | 4:29.17 | 185050 | 205241
11 | 45:36.42 | 5:15.30 | 205242 | 228896
12 | 50:51.72 | 4:33.23 | 228897 | 249394
13 | 55:25.20 | 7:55.45 | 249395 | 285064
14 | 63:20.65 | 7:19.07 | 285065 | 317996
Track 1
Filename c:\Torrent\FLAC\Marlena Shaw\The Sass and Soul of Marlena Shaw, Go Away Little Boy\01 - Yu-Ma,Go Away Little Boy.wav
Pre-gap length 0:00:02.00
Peak level 100.0 %
Track quality 100.0 %
Test CRC 35361B61
Copy CRC 35361B61
Copy OK
Track 2
Filename c:\Torrent\FLAC\Marlena Shaw\The Sass and Soul of Marlena Shaw, Go Away Little Boy\02 - I Think I'll Tell Him.wav
Peak level 99.9 %
Track quality 100.0 %
Test CRC 6D1FF050
Copy CRC 6D1FF050
Copy OK
Track 3
Filename c:\Torrent\FLAC\Marlena Shaw\The Sass and Soul of Marlena Shaw, Go Away Little Boy\03 - Rhythm Of Love.wav
Pre-gap length 0:00:00.01
Peak level 100.0 %
Track quality 100.0 %
Test CRC 2E392E32
Copy CRC 2E392E32
Copy OK
Track 4
Filename c:\Torrent\FLAC\Marlena Shaw\The Sass and Soul of Marlena Shaw, Go Away Little Boy\04 - Moonrise.wav
Pre-gap length 0:00:00.02
Peak level 100.0 %
Track quality 99.9 %
Test CRC FB8250F2
Copy CRC FB8250F2
Copy OK
Track 5
Filename c:\Torrent\FLAC\Marlena Shaw\The Sass and Soul of Marlena Shaw, Go Away Little Boy\05 - I Wonder.wav
Peak level 100.0 %
Track quality 99.9 %
Test CRC 7F64B649
Copy CRC 7F64B649
Copy OK
Track 6
Filename c:\Torrent\FLAC\Marlena Shaw\The Sass and Soul of Marlena Shaw, Go Away Little Boy\06 - Shaw Biz , Suddenly It's How I'd Like To Feel.wav
Pre-gap length 0:00:00.01
Peak level 100.0 %
Track quality 100.0 %
Test CRC 3D05CE6C
Copy CRC 3D05CE6C
Copy OK
Track 7
Filename c:\Torrent\FLAC\Marlena Shaw\The Sass and Soul of Marlena Shaw, Go Away Little Boy\07 - I'm Back For More.wav
Pre-gap length 0:00:00.01
Peak level 99.6 %
Track quality 100.0 %
Test CRC FF9B2DFE
Copy CRC FF9B2DFE
Copy OK
Track 8
Filename c:\Torrent\FLAC\Marlena Shaw\The Sass and Soul of Marlena Shaw, Go Away Little Boy\08 - Sweet Beginnings.wav
Pre-gap length 0:00:00.01
Peak level 98.9 %
Track quality 100.0 %
Test CRC 82A1215B
Copy CRC 82A1215B
Copy OK
Track 9
Filename c:\Torrent\FLAC\Marlena Shaw\The Sass and Soul of Marlena Shaw, Go Away Little Boy\09 - More.wav
Pre-gap length 0:00:00.01
Peak level 89.7 %
Track quality 100.0 %
Test CRC B7982C72
Copy CRC B7982C72
Copy OK
Track 10
Filename c:\Torrent\FLAC\Marlena Shaw\The Sass and Soul of Marlena Shaw, Go Away Little Boy\10 - Walk Softly.wav
Pre-gap length 0:00:00.01
Peak level 99.2 %
Track quality 100.0 %
Test CRC 6431A0D1
Copy CRC 6431A0D1
Copy OK
Track 11
Filename c:\Torrent\FLAC\Marlena Shaw\The Sass and Soul of Marlena Shaw, Go Away Little Boy\11 - No One Yet.wav
Pre-gap length 0:00:00.01
Peak level 100.0 %
Track quality 99.8 %
Test CRC 3AFECA02
Copy CRC 3AFECA02
Copy OK
Track 12
Filename c:\Torrent\FLAC\Marlena Shaw\The Sass and Soul of Marlena Shaw, Go Away Little Boy\12 - Pictures and Memories.wav
Pre-gap length 0:00:00.01
Peak level 98.7 %
Track quality 100.0 %
Test CRC E5DB640D
Copy CRC E5DB640D
Copy OK
Track 13
Filename c:\Torrent\FLAC\Marlena Shaw\The Sass and Soul of Marlena Shaw, Go Away Little Boy\13 - Love Dancin'.wav
Pre-gap length 0:00:00.01
Peak level 100.0 %
Track quality 100.0 %
Test CRC 4C4F8F21
Copy CRC 4C4F8F21
Copy OK
Track 14
Filename c:\Torrent\FLAC\Marlena Shaw\The Sass and Soul of Marlena Shaw, Go Away Little Boy\14 - Touch Me In The Morning.wav
Pre-gap length 0:00:00.01
Peak level 100.0 %
Track quality 100.0 %
Test CRC AAFDC632
Copy CRC AAFDC632
Copy OK
No errors occurred
End of status report
 
Содержание индексной карты (.CUE)
REM GENRE Soul
REM DATE 1999
REM DISCID C8108F0E
REM COMMENT "ExactAudioCopy v0.99pb4"
FILE "01 Yu-Ma,Go Away Little Boy.wav" WAVE
TRACK 01 AUDIO
INDEX 01 00:00:00
FILE "02 I Think I'll Tell Him.wav" WAVE
TRACK 02 AUDIO
INDEX 01 00:00:00
TRACK 03 AUDIO
INDEX 00 03:45:64
FILE "03 Rhythm Of Love.wav" WAVE
INDEX 01 00:00:00
TRACK 04 AUDIO
INDEX 00 03:45:43
FILE "04 Moonrise.wav" WAVE
INDEX 01 00:00:00
FILE "05 I Wonder.wav" WAVE
TRACK 05 AUDIO
INDEX 01 00:00:00
TRACK 06 AUDIO
INDEX 00 04:28:21
FILE "06 Shaw Biz, Suddenly It's How I'd Like To Feel.wav" WAVE
INDEX 01 00:00:00
TRACK 07 AUDIO
INDEX 00 05:34:42
FILE "07 I'm Back For More.wav" WAVE
INDEX 01 00:00:00
TRACK 08 AUDIO
INDEX 00 04:06:24
FILE "08 Sweet Beginnings.wav" WAVE
INDEX 01 00:00:00
TRACK 09 AUDIO
INDEX 00 04:29:04
FILE "09 More.wav" WAVE
INDEX 01 00:00:00
TRACK 10 AUDIO
INDEX 00 03:45:64
FILE "10 Walk Softly.wav" WAVE
INDEX 01 00:00:00
TRACK 11 AUDIO
INDEX 00 04:29:16
FILE "11 No One Yet.wav" WAVE
INDEX 01 00:00:00
TRACK 12 AUDIO
INDEX 00 05:15:29
FILE "12 Pictures and Memories.wav" WAVE
INDEX 01 00:00:00
TRACK 13 AUDIO
INDEX 00 04:33:22
FILE "13 Love Dancin'.wav" WAVE
INDEX 01 00:00:00
TRACK 14 AUDIO
INDEX 00 07:55:44
FILE "14 Touch Me In The Morning.wav" WAVE
INDEX 01 00:00:00
 
2003 - The Blue Note Years (01:11:47)
Треклист:
01 Woman Of The Ghetto (Live)
02 Easy Evil
03 Love Has Gone Away (Single Version)
04 It's Better Than Walking Out (Single Version)
05 Loving You Was Like A Party
06 Feel Like Makin' Love
07 Me And Mrs Jones
08 Save The Children
09 Running Out Of Fools
10 The Show Has Begun (Live)
11 Twisted (Live)
12 Last Tango In Paris
13 Somewhere
14 Time For Me To Go
15 What Are You Doing For The Rest Of Your Life
16 The Feeling's Good
 
Лог создания рипа
Exact Audio Copy V0.99 prebeta 5 from 4. May 2009
EAC extraction logfile from 4. March 2010, 17:09
Marlena Shaw / The Blue Note Years
Used drive : TEAC CD-W54E Adapter: 0 ID: 0
Read mode : Secure
Utilize accurate stream : Yes
Defeat audio cache : Yes
Make use of C2 pointers : No
Read offset correction : 685
Overread into Lead-In and Lead-Out : No
Fill up missing offset samples with silence : Yes
Delete leading and trailing silent blocks : No
Null samples used in CRC calculations : Yes
Used interface : Installed external ASPI interface
Gap handling : Appended to previous track
Used output format : User Defined Encoder
Selected bitrate : 1024 kBit/s
Quality : High
Add ID3 tag : No
Command line compressor : C:\Program Files\Exact Audio Copy\Flac\flac.exe
Additional command line options : -V -8 -T "artist=%a" -T "title=%t" -T "album=%g" -T "date=%y" -T "tracknumber=%n" -T "genre=%m" %s
TOC of the extracted CD
Track | Start | Length | Start sector | End sector
---------------------------------------------------------
1 | 0:00.00 | 10:05.64 | 0 | 45438
2 | 10:05.64 | 3:39.46 | 45439 | 61909
3 | 13:45.35 | 3:10.34 | 61910 | 76193
4 | 16:55.69 | 4:06.20 | 76194 | 94663
5 | 21:02.14 | 4:19.04 | 94664 | 114092
6 | 25:21.18 | 5:04.06 | 114093 | 136898
7 | 30:25.24 | 5:14.02 | 136899 | 160450
8 | 35:39.26 | 4:09.35 | 160451 | 179160
9 | 39:48.61 | 4:48.68 | 179161 | 200828
10 | 44:37.54 | 4:03.51 | 200829 | 219104
11 | 48:41.30 | 3:56.00 | 219105 | 236804
12 | 52:37.30 | 3:21.30 | 236805 | 251909
13 | 55:58.60 | 3:28.54 | 251910 | 267563
14 | 59:27.39 | 3:16.68 | 267564 | 282331
15 | 62:44.32 | 5:08.72 | 282332 | 305503
16 | 67:53.29 | 3:53.33 | 305504 | 323011
Track 1
Filename D:\LOSSLESS\Marlena Shaw - The Blue Note Years\01. Woman Of The Ghetto (Live).wav
Pre-gap length 0:00:02.00
Peak level 100.0 %
Track quality 100.0 %
Test CRC 507BB11C
Copy CRC 507BB11C
Cannot be verified as accurate (confidence 3) [CDFB10E2], AccurateRip returned [5035E0EE]
Copy OK
Track 2
Filename D:\LOSSLESS\Marlena Shaw - The Blue Note Years\02.Easy Evil.wav
Pre-gap length 0:00:02.24
Peak level 98.3 %
Track quality 100.0 %
Test CRC BEB5BF58
Copy CRC BEB5BF58
Cannot be verified as accurate (confidence 3) [C7FC9080], AccurateRip returned [AC025018]
Copy OK
Track 3
Filename D:\LOSSLESS\Marlena Shaw - The Blue Note Years\03. Love Has Gone Away (Single Version).wav
Pre-gap length 0:00:01.92
Peak level 100.0 %
Track quality 100.0 %
Test CRC 289D3B2E
Copy CRC 289D3B2E
Cannot be verified as accurate (confidence 3) [D2386A58], AccurateRip returned [3069AB10]
Copy OK
Track 4
Filename D:\LOSSLESS\Marlena Shaw - The Blue Note Years\04. It's Better Than Walking Out (Single Version).wav
Pre-gap length 0:00:02.17
Peak level 99.0 %
Track quality 100.0 %
Test CRC B8CD1836
Copy CRC B8CD1836
Cannot be verified as accurate (confidence 3) [BAB471A5], AccurateRip returned [D30F53C1]
Copy OK
Track 5
Filename D:\LOSSLESS\Marlena Shaw - The Blue Note Years\05.Loving You Was Like A Party.wav
Pre-gap length 0:00:01.88
Peak level 99.3 %
Track quality 100.0 %
Test CRC BD11F5A1
Copy CRC BD11F5A1
Cannot be verified as accurate (confidence 3) [48C2C56C], AccurateRip returned [30E806E8]
Copy OK
Track 6
Filename D:\LOSSLESS\Marlena Shaw - The Blue Note Years\06. Feel Like Makin' Love.wav
Pre-gap length 0:00:02.26
Peak level 98.2 %
Track quality 100.0 %
Test CRC BDF5886D
Copy CRC BDF5886D
Cannot be verified as accurate (confidence 3) [E45F4ACB], AccurateRip returned [68E59B8F]
Copy OK
Track 7
Filename D:\LOSSLESS\Marlena Shaw - The Blue Note Years\07.Me And Mrs Jones.wav
Pre-gap length 0:00:01.70
Peak level 99.2 %
Track quality 100.0 %
Test CRC 49A29E79
Copy CRC 49A29E79
Cannot be verified as accurate (confidence 3) [3382D3C1], AccurateRip returned [4CE1651D]
Copy OK
Track 8
Filename D:\LOSSLESS\Marlena Shaw - The Blue Note Years\08.Save The Children.wav
Pre-gap length 0:00:02.01
Peak level 100.0 %
Track quality 100.0 %
Test CRC 2399E51E
Copy CRC 2399E51E
Cannot be verified as accurate (confidence 3) [CE370E73], AccurateRip returned [C5DB4EAB]
Copy OK
Track 9
Filename D:\LOSSLESS\Marlena Shaw - The Blue Note Years\09.Running Out Of Fools.wav
Pre-gap length 0:00:02.60
Peak level 100.0 %
Track quality 99.9 %
Test CRC 385D1B61
Copy CRC 385D1B61
Cannot be verified as accurate (confidence 3) [FC89901B], AccurateRip returned [7FBB91F7]
Copy OK
Track 10
Filename D:\LOSSLESS\Marlena Shaw - The Blue Note Years\10.The Show Has Begun (Live).wav
Pre-gap length 0:00:02.00
Peak level 100.0 %
Track quality 100.0 %
Test CRC 12D4A6C7
Copy CRC 12D4A6C7
Cannot be verified as accurate (confidence 3) [2D457701], AccurateRip returned [C3DDF0B5]
Copy OK
Track 11
Filename D:\LOSSLESS\Marlena Shaw - The Blue Note Years\11. Twisted (Live).wav
Pre-gap length 0:00:02.49
Peak level 100.0 %
Track quality 100.0 %
Test CRC B41EE677
Copy CRC B41EE677
Cannot be verified as accurate (confidence 3) [6749E370], AccurateRip returned [3B5403D8]
Copy OK
Track 12
Filename D:\LOSSLESS\Marlena Shaw - The Blue Note Years\12. Last Tango In Paris.wav
Pre-gap length 0:00:02.36
Peak level 100.0 %
Track quality 100.0 %
Test CRC 9057A294
Copy CRC 9057A294
Cannot be verified as accurate (confidence 3) [361E62A9], AccurateRip returned [A7D8432D]
Copy OK
Track 13
Filename D:\LOSSLESS\Marlena Shaw - The Blue Note Years\13. Somewhere.wav
Pre-gap length 0:00:01.92
Peak level 100.0 %
Track quality 100.0 %
Test CRC D462D81A
Copy CRC D462D81A
Cannot be verified as accurate (confidence 3) [CE9F24B0], AccurateRip returned [369D9A64]
Copy OK
Track 14
Filename D:\LOSSLESS\Marlena Shaw - The Blue Note Years\14.Time For Me To Go.wav
Pre-gap length 0:00:02.48
Peak level 99.1 %
Track quality 99.9 %
Test CRC 47F5ED9F
Copy CRC 47F5ED9F
Cannot be verified as accurate (confidence 3) [FE0B1A66], AccurateRip returned [39EF46AA]
Copy OK
Track 15
Filename D:\LOSSLESS\Marlena Shaw - The Blue Note Years\15. What Are You Doing For The Rest Of Your Life.wav
Pre-gap length 0:00:02.17
Peak level 100.0 %
Track quality 100.0 %
Test CRC CCFD3D6C
Copy CRC CCFD3D6C
Cannot be verified as accurate (confidence 3) [E14A426D], AccurateRip returned [D07A478D]
Copy OK
Track 16
Filename D:\LOSSLESS\Marlena Shaw - The Blue Note Years\16.The Feeling's Good.wav
Pre-gap length 0:00:01.93
Peak level 99.7 %
Track quality 99.9 %
Test CRC 6424AED7
Copy CRC 6424AED7
Cannot be verified as accurate (confidence 3) [FFA6D5E4], AccurateRip returned [ADA191C4]
Copy OK
No tracks could be verified as accurate
You may have a different pressing from the one(s) in the database
No errors occurred
End of status report
 
Содержание индексной карты (.CUE)
REM DATE 2003
REM DISCID EC10D210
REM COMMENT "ExactAudioCopy v0.99pb5"
PERFORMER "Marlena Shaw"
TITLE "The Blue Note Years"
FILE "01 Woman Of The Ghetto (Live).wav" WAVE
TRACK 01 AUDIO
TITLE "Woman Of The Ghetto (Live)"
PERFORMER "Marlena Shaw"
INDEX 01 00:00:00
TRACK 02 AUDIO
TITLE "Easy Evil"
PERFORMER "Marlena Shaw"
INDEX 00 10:03:46
FILE "02 Easy Evil.wav" WAVE
INDEX 01 00:00:00
TRACK 03 AUDIO
TITLE "Love Has Gone Away (Single Version)"
PERFORMER "Marlena Shaw"
INDEX 00 03:37:52
FILE "03 Love Has Gone Away (Single Version).wav" WAVE
INDEX 01 00:00:00
TRACK 04 AUDIO
TITLE "It's Better Than Walking Out (Single Version)"
PERFORMER "Marlena Shaw"
INDEX 00 03:08:21
FILE "04 It's Better Than Walking Out (Single Version).wav" WAVE
INDEX 01 00:00:00
TRACK 05 AUDIO
TITLE "Loving You Was Like A Party"
PERFORMER "Marlena Shaw"
INDEX 00 04:04:29
FILE "05 Loving You Was Like A Party.wav" WAVE
INDEX 01 00:00:00
TRACK 06 AUDIO
TITLE "Feel Like Makin' Love"
PERFORMER "Marlena Shaw"
INDEX 00 04:16:59
FILE "06 Feel Like Makin' Love.wav" WAVE
INDEX 01 00:00:00
TRACK 07 AUDIO
TITLE "Me And Mrs Jones"
PERFORMER "Marlena Shaw"
INDEX 00 05:02:28
FILE "07 Me And Mrs Jones.wav" WAVE
INDEX 01 00:00:00
TRACK 08 AUDIO
TITLE "Save The Children"
PERFORMER "Marlena Shaw"
INDEX 00 05:12:01
FILE "08 Save The Children.wav" WAVE
INDEX 01 00:00:00
TRACK 09 AUDIO
TITLE "Running Out Of Fools"
PERFORMER "Marlena Shaw"
INDEX 00 04:06:65
FILE "09 Running Out Of Fools.wav" WAVE
INDEX 01 00:00:00
TRACK 10 AUDIO
TITLE "The Show Has Begun (Live)"
PERFORMER "Marlena Shaw"
INDEX 00 04:46:68
FILE "10 The Show Has Begun (Live).wav" WAVE
INDEX 01 00:00:00
TRACK 11 AUDIO
TITLE "Twisted (Live)"
PERFORMER "Marlena Shaw"
INDEX 00 04:01:14
FILE "11 Twisted (Live).wav" WAVE
INDEX 01 00:00:00
TRACK 12 AUDIO
TITLE "Last Tango In Paris"
PERFORMER "Marlena Shaw"
INDEX 00 03:53:48
FILE "12 Last Tango In Paris.wav" WAVE
INDEX 01 00:00:00
TRACK 13 AUDIO
TITLE "Somewhere"
PERFORMER "Marlena Shaw"
INDEX 00 03:19:36
FILE "13 Somewhere.wav" WAVE
INDEX 01 00:00:00
TRACK 14 AUDIO
TITLE "Time For Me To Go"
PERFORMER "Marlena Shaw"
INDEX 00 03:26:18
FILE "14 Time For Me To Go.wav" WAVE
INDEX 01 00:00:00
TRACK 15 AUDIO
TITLE "What Are You Doing For The Rest Of Your Life"
PERFORMER "Marlena Shaw"
INDEX 00 03:14:55
FILE "15 What Are You Doing For The Rest Of Your Life.wav" WAVE
INDEX 01 00:00:00
TRACK 16 AUDIO
TITLE "The Feeling's Good "
PERFORMER "Marlena Shaw"
INDEX 00 05:07:02
FILE "16 The Feeling's Good.wav" WAVE
INDEX 01 00:00:00
Приватный:
Нет (DHT включён)
Размер:
2.09 Гб (2,242,675,770 байт) » файлов: 135
Участники:
0 раздают, 0 качают (0 участников всего)
Внешние участники:
1 раздают, 0 качают (1 участников всего) [ Обновить ]
For power users only: no seeders - write to support@pro-jazz.com. Для power user: нет сидеров - пишите на support@pro-jazz.com.
09:30
407
Нет комментариев. Ваш будет первым!