Поиск

(Funk/Soul/Latin/Boogaloo/60-70's) Various Artists - Vampi Soul In Search Of The Cool (Vampi Soul cd013) - 2003, APE (image+.cue), lossless

(Funk/Soul/Latin/Boogaloo/60-70's) Various Artists - Vampi Soul In Search Of The Cool (Vampi Soul cd013) - 2003, APE (image+.cue), lossless
Треклист:
Various Artists - Vampi Soul In Search Of The Cool (Vampi Soul cd013)
Жанр: Funk/Soul/Latin/Boogaloo/60-70's
Год выпуска диска: 2003
Производитель диска: Spain / Vampi Soul rec
Аудио кодек: APE
Тип рипа: image+.cue
Битрейт аудио: lossless
Продолжительность: 58:39
Трэклист:
01. Sly & The Family Stone - Searchin' (2:29)
02. Ray Barretto - The Teacher Of Love (2:29)
03. Ricardo Ray Orchestra -California Sun (2:40)
04. Barry White - I Don't Need It (2:27)
05. Monguito Santamaria - El Dorado (3:13)
06. Joe Bataan - Johnny's No Good (3:38)
07. Harvey Averne - Dinamite (2:37)
08. Black Sugar - Viajecito (5:08)
09. Jack Costanzo / Gerry Woo - Don't Squeeze The Peaches (3:00)
10. Joe Cuba Sextet - Ooh! Ah! (3:51)
11. Willie Bobo - Rigor Mortis (2:29)
12. Emil Richards - Oh, Very Well (4:02)
13. Eden Ahbez - Mongoose (1:47)
14. Claudine Longet - Ain't No Mountain High Enough (3:34)
15. OPA - Casa Forte (3:44)
16. Eddie Palmieri / Cal Tjader - Samba Do Suenho (3:54)
17. Sexteto Electronico Moderno - Divagando (2:16)
18. Golden Stars - Tema De Los Golden Stars (2:48)
19. Billy Preston - Shotgun (2:24)
 
Отчёт EAC
Exact Audio Copy V0.99 prebeta 4 from 23. January 2008
Отчёт EAC об извлечении, выполненном 7. мая 2009, 17:08
Various / Vampisoul - In Search Of The Cool
Дисковод: TEAC DV-W516GA Adapter: 0 ID: 0
Режим чтения : Достоверность
Использование точного потока : Да
Отключение кэша аудио : Да
Использование указателей C2 : Нет
Коррекция смещения при чтении : 12
Способность читать области Lead-in и Lead-out : Нет
Заполнение пропущенных сэмплов тишиной : Да
Удаление блоков с тишиной в начале и конце : Нет
При вычислениях CRC использовались нулевые сэмплы : Да
Интерфейс : Встроенный Win32-интерфейс для Win NT/2000
Выходной формат : Внутренние WAV-операции
Формат сэмплов : 44.100 Гц; 16 бит; стерео
TOC извлечённого CD
Трек | Старт | Длительность | Начальный сектор | Конечный сектор
---------------------------------------------------------------------
1 | 0:00.00 | 2:29.29 | 0 | 11203
2 | 2:29.29 | 2:29.71 | 11204 | 22449
3 | 4:59.25 | 2:40.58 | 22450 | 34507
4 | 7:40.08 | 2:27.27 | 34508 | 45559
5 | 10:07.35 | 3:13.31 | 45560 | 60065
6 | 13:20.66 | 3:38.06 | 60066 | 76421
7 | 16:58.72 | 2:37.06 | 76422 | 88202
8 | 19:36.03 | 5:08.62 | 88203 | 111364
9 | 24:44.65 | 3:00.40 | 111365 | 124904
10 | 27:45.30 | 3:51.09 | 124905 | 142238
11 | 31:36.39 | 2:29.62 | 142239 | 153475
12 | 34:06.26 | 4:02.28 | 153476 | 171653
13 | 38:08.54 | 1:47.39 | 171654 | 179717
14 | 39:56.18 | 3:34.06 | 179718 | 195773
15 | 43:30.24 | 3:44.50 | 195774 | 212623
16 | 47:14.74 | 3:54.27 | 212624 | 230200
17 | 51:09.26 | 2:16.45 | 230201 | 240445
18 | 53:25.71 | 2:48.64 | 240446 | 253109
19 | 56:14.60 | 2:24.31 | 253110 | 263940
Характеристики диапазона извлечения и сообщения об ошибках
Выбранный диапазон
Имя файла C:\Documents and Settings\glebov\Мои документы\V.A Vampisoul-In Search Of The Cool\Various - Vampisoul - In Search Of The Cool.wav
Пиковый уровень 100.0 %
Качество диапазона 99.9 %
CRC копии F09B7BB0
Копирование... OK
Ошибок не произошло
AccurateRip: сводка
Трек 1 точность не определена (достоверность 4) [10D24CE4], AccurateRip вернул [B073536C]
Трек 2 точность не определена (достоверность 4) [FFA8FE5F], AccurateRip вернул [6DF2A32E]
Трек 3 точность не определена (достоверность 4) [6CD80ED7], AccurateRip вернул [A71D1ABA]
Трек 4 точность не определена (достоверность 4) [AD643186], AccurateRip вернул [6CFEB1AE]
Трек 5 точность не определена (достоверность 4) [B0294AE5], AccurateRip вернул [1C430E24]
Трек 6 точность не определена (достоверность 4) [CC32ED25], AccurateRip вернул [9E829BB1]
Трек 7 точность не определена (достоверность 4) [E85F5C5A], AccurateRip вернул [6C171AE9]
Трек 8 точность не определена (достоверность 4) [026D70C2], AccurateRip вернул [B7208A08]
Трек 9 точность не определена (достоверность 4) [B5129F1A], AccurateRip вернул [38AF70B3]
Трек 10 точность не определена (достоверность 4) [A3CB5BF5], AccurateRip вернул [49D7EE13]
Трек 11 точность не определена (достоверность 4) [27B119E8], AccurateRip вернул [B23AD00B]
Трек 12 точность не определена (достоверность 4) [A3E46C72], AccurateRip вернул [01720D21]
Трек 13 точность не определена (достоверность 4) [9948A309], AccurateRip вернул [8639D545]
Трек 14 точность не определена (достоверность 4) [54488400], AccurateRip вернул [9E02CC70]
Трек 15 точность не определена (достоверность 4) [1680A7C9], AccurateRip вернул [260C61B2]
Трек 16 точность не определена (достоверность 4) [3670EBFA], AccurateRip вернул [132570C5]
Трек 17 точность не определена (достоверность 4) [6CA9DC0C], AccurateRip вернул [2702DFEC]
Трек 18 точность не определена (достоверность 4) [3DAF14D2], AccurateRip вернул [E5660235]
Трек 19 точность не определена (достоверность 4) [5CC91BBD], AccurateRip вернул [218826DD]
Ни один трек не прошёл проверки на точность
В вашей базе может быть иной вариант штамповки диска
Конец отчёта
Vampi Soul - это испанский лэйбл, специализирующийся на выпуске jazz/funk/soul/latin/rare groove 50-х, 60-х и 70-х годов. Они покупают права на раритетные виниловые релизы и выпускают на CD. Причем они не изменяют оформление пластинок и не "затачивают" звук под современные стандарты. В общем Vampi Soul - это винтаж и в первую очередь знак качества.http://www.vampisoul.com/ Другие раздачи Vampi Soul на rutracker.org
Download available for power users only.
06:13
219
Нет комментариев. Ваш будет первым!