Поиск

(Funk/R'n'B/Soul/Psychedelic Rock) [CD] Archie Whitewater - Archie Whitewater - 1970, FLAC (image+.cue), lossless

(Funk/R'n'B/Soul/Psychedelic Rock) [CD] Archie Whitewater - Archie Whitewater - 1970, FLAC (image+.cue), lossless
Треклист:
Archie Whitewater / Archie Whitewater
Жанр: Funk/R'n'B/Soul/Psychedelic Rock
Носитель: CD
Страна-производитель диска (релиза): UK
Год издания: 1970
Издатель (лейбл): RPM Rec
Номер по каталогу: RETRO 902
Страна исполнителя (группы): UK
Аудиокодек: FLAC (*.flac)
Тип рипа: image+.cue
Битрейт аудио: lossless
Продолжительность: 00:39:54
Источник (релизер): собственный рип
Наличие сканов в содержимом раздачи: да
Треклист:
1 Don't Be Short
2 Northstar
3 Mist Of The Early Morning
4 Life Is A River
5 Friends And Neighbors
6 Country To The City
7 Home Again
8 Cross Country
9 Lament For The Walking Dead
10 Seacost
11 Hulk
 
Лог создания рипа
Exact Audio Copy V1.1 from 23. June 2015
Отчёт EAC об извлечении, выполненном 29. января 2016, 21:08
ARCHIE WHITEWATER / ARCHIE WHITEWATER
Дисковод: ASUS DRW-24B3ST Adapter: 0 ID: 0
Режим чтения : Достоверность
Использование точного потока : Да
Отключение кэша аудио : Да
Использование указателей C2 : Нет
Коррекция смещения при чтении : 6
Способность читать области Lead-in и Lead-out : Нет
Заполнение пропущенных сэмплов тишиной : Да
Удаление блоков с тишиной в начале и конце : Нет
При вычислениях CRC использовались нулевые сэмплы : Да
Интерфейс : Установленный внешний ASPI-интерфейс
Выходной формат : Пользовательский кодировщик
Выбранный битрейт : 896 kBit/s
Качество : Высокий
Добавление ID3-тега : Нет
Утилита сжатия : C:\Program Files (x86)\Exact Audio Copy\FLAC\FLAC.EXE
Дополнительные параметры : -6 -V -T "ARTIST=%artist%" -T "TITLE=%title%" -T "ALBUM=%albumtitle%" -T "DATE=%year%" -T "TRACKNUMBER=%tracknr%" -T "GENRE=%genre%" -T "COMMENT=%comment%" -T "BAND=%albuminterpret%" -T "ALBUMARTIST=%albuminterpret%" -T "COMPOSER=%composer%" %haslyrics%--tag-from-file=LYRICS="%lyricsfile%"%haslyrics% -T "DISCNUMBER=%cdnumber%" -T "TOTALDISCS=%totalcds%" -T "TOTALTRACKS=%numtracks%" %hascover%--picture="%coverfile%"%hascover% %source% -o %dest%
TOC извлечённого CD
Трек | Старт | Длительность | Начальный сектор | Конечный сектор
---------------------------------------------------------------------
1 | 0:00.00 | 2:09.50 | 0 | 9724
2 | 2:09.50 | 4:17.02 | 9725 | 29001
3 | 6:26.52 | 3:52.61 | 29002 | 46462
4 | 10:19.38 | 3:23.60 | 46463 | 61747
5 | 13:43.23 | 3:46.19 | 61748 | 78716
6 | 17:29.42 | 4:27.08 | 78717 | 98749
7 | 21:56.50 | 4:09.17 | 98750 | 117441
8 | 26:05.67 | 3:21.65 | 117442 | 132581
9 | 29:27.57 | 4:35.45 | 132582 | 153251
10 | 34:03.27 | 3:51.04 | 153252 | 170580
11 | 37:54.31 | 1:59.21 | 170581 | 179526
Характеристики диапазона извлечения и сообщения об ошибках
Выбранный диапазон
Имя файла E:\Torrents\Archie Whitewater - 1970 - Archie Whitewater\ARCHIE WHITEWATER - ARCHIE WHITEWATER.wav
Пиковый уровень 96.6 %
Скорость извлечения 7.6 X
Качество диапазона 99.9 %
CRC теста 36A6B9D0
CRC копии 36A6B9D0
Копирование... OK
Ошибок не произошло
Конец отчёта
==== Контрольная сумма отчёта C558AE3E550BE7D2AF4B0CA614CE7FE83285E837157218CB45DF3007BBBBACFC ====
Приватный:
Нет (DHT включён)
Размер:
256.12 Мб (268,560,432 байт) » файлов: 5
Участники:
0 раздают, 0 качают (0 участников всего)
Внешние участники:
5 раздают, 1 качают (6 участников всего) [ Обновить ]
Есть вопросы - пишите личное сообщение пользователю M0p94ok.
09:45
67
Нет комментариев. Ваш будет первым!