Поиск

(Funk, Soul, Rhythm & Blues) [CD] Renee Geyer - Difficult Woman - 1994, FLAC (tracks+.cue), lossless

(Funk, Soul, Rhythm & Blues) [CD] Renee Geyer - Difficult Woman - 1994, FLAC (tracks+.cue), lossless
Треклист:
Renee Geyer / Difficult Woman
Жанр: Funk, Soul, Rhythm & Blues
Носитель: CD
Страна-производитель диска (релиза): Australia
Год издания: 1994
Издатель (лейбл): Larrikin
Номер по каталогу: LRJ342
Страна исполнителя (группы): Australia
Аудиокодек: FLAC (*.flac)
Тип рипа: tracks+.cue
Битрейт аудио: lossless
Продолжительность: 00:44:58
Источник (релизер): rovanpera
Наличие сканов в содержимом раздачи: да, с сети
Треклист:
01. Close (4:15)
02. Careless (3:47)
03. Difficult Woman (4:31)
04. God only Knows (2:05)
05. Foggy Highway (3:30)
06. Summer, Winter, Spring and Fall (5:34)
07. Just the Thought of You (4:56)
08. Sweet Guy (4:35)
09. Real (5:21)
10. He Was Too Good to Me (3:10)
11. Trouble (3:11)
 
Лог создания рипа
Exact Audio Copy V1.0 beta 3 from 29. August 2011
EAC extraction logfile from 13. March 2014, 18:13
Renée Geyer / Difficult Woman
Used drive : TSSTcorpCDDVDW SH-224BB Adapter: 0 ID: 2
Read mode : Secure
Utilize accurate stream : Yes
Defeat audio cache : Yes
Make use of C2 pointers : No
Read offset correction : 6
Overread into Lead-In and Lead-Out : No
Fill up missing offset samples with silence : Yes
Delete leading and trailing silent blocks : No
Null samples used in CRC calculations : Yes
Used interface : Native Win32 interface for Win NT & 2000
Gap handling : Appended to previous track
Used output format : User Defined Encoder
Selected bitrate : 896 kBit/s
Quality : High
Add ID3 tag : No
Command line compressor : C:\Program Files (x86)\FLAC\flac.exe
Additional command line options : -6 -V -T "ARTIST=%artist%" -T "TITLE=%title%" -T "ALBUM=%albumtitle%" -T "DATE=%year%" -T "TRACKNUMBER=%tracknr%" -T "GENRE=%genre%" -T "COMMENT=%comment%" -T "BAND=%albuminterpret%" -T "COMPOSER=%composer%" %haslyrics%--tag-from-file=LYRICS="%lyricsfile%"%haslyrics% -T "DISCNUMBER=%cdnumber%" -T "TOTALDISCS=%totalcds%" -T "TOTALTRACKS=%numtracks%" %hascover%--picture="%coverfile%"%hascover% %source% -o %dest%
TOC of the extracted CD
Track | Start | Length | Start sector | End sector
---------------------------------------------------------
1 | 0:00.00 | 4:15.25 | 0 | 19149
2 | 4:15.25 | 3:47.32 | 19150 | 36206
3 | 8:02.57 | 4:30.48 | 36207 | 56504
4 | 12:33.30 | 2:05.00 | 56505 | 65879
5 | 14:38.30 | 3:30.10 | 65880 | 81639
6 | 18:08.40 | 5:34.35 | 81640 | 106724
7 | 23:43.00 | 4:56.35 | 106725 | 128959
8 | 28:39.35 | 4:35.25 | 128960 | 149609
9 | 33:14.60 | 5:21.27 | 149610 | 173711
10 | 38:36.12 | 3:10.35 | 173712 | 187996
11 | 41:46.47 | 3:11.03 | 187997 | 202324
Track 1
Filename C:\Users\John\Documents\Renee Geyer-Difficult Woman\01 Close.wav
Pre-gap length 0:00:02.00
Peak level 100.0 %
Extraction speed 4.5 X
Track quality 100.0 %
Test CRC 6E349545
Copy CRC 6E349545
Accurately ripped (confidence 3) [107456E9] (AR v1)
Copy OK
Track 2
Filename C:\Users\John\Documents\Renee Geyer-Difficult Woman\02 Careless.wav
Pre-gap length 0:00:03.13
Peak level 100.0 %
Extraction speed 3.9 X
Track quality 99.9 %
Test CRC 696DB4F2
Copy CRC 696DB4F2
Accurately ripped (confidence 3) [59A38401] (AR v1)
Copy OK
Track 3
Filename C:\Users\John\Documents\Renee Geyer-Difficult Woman\03 Difficult Woman.wav
Pre-gap length 0:00:04.02
Peak level 100.0 %
Extraction speed 5.4 X
Track quality 100.0 %
Test CRC B08527E1
Copy CRC B08527E1
Accurately ripped (confidence 3) [6B87930B] (AR v1)
Copy OK
Track 4
Filename C:\Users\John\Documents\Renee Geyer-Difficult Woman\04 God only Knows.wav
Pre-gap length 0:00:03.57
Peak level 65.7 %
Extraction speed 4.9 X
Track quality 100.0 %
Test CRC 0BA87230
Copy CRC 0BA87230
Accurately ripped (confidence 3) [FB9F0CC5] (AR v1)
Copy OK
Track 5
Filename C:\Users\John\Documents\Renee Geyer-Difficult Woman\05 Foggy Highway.wav
Pre-gap length 0:00:02.06
Peak level 100.0 %
Extraction speed 4.5 X
Track quality 99.9 %
Test CRC D1022BCA
Copy CRC D1022BCA
Accurately ripped (confidence 3) [F675A75F] (AR v1)
Copy OK
Track 6
Filename C:\Users\John\Documents\Renee Geyer-Difficult Woman\06 Summer, Winter, Spring and Fall.wav
Peak level 100.0 %
Extraction speed 6.4 X
Track quality 100.0 %
Test CRC 30B88C31
Copy CRC 30B88C31
Accurately ripped (confidence 3) [0DB23FE7] (AR v1)
Copy OK
Track 7
Filename C:\Users\John\Documents\Renee Geyer-Difficult Woman\07 Just the Thought of You.wav
Peak level 100.0 %
Extraction speed 5.6 X
Track quality 99.9 %
Test CRC 99E50192
Copy CRC 99E50192
Accurately ripped (confidence 3) [44E3ACEB] (AR v1)
Copy OK
Track 8
Filename C:\Users\John\Documents\Renee Geyer-Difficult Woman\08 Sweet Guy.wav
Pre-gap length 0:00:01.97
Peak level 100.0 %
Extraction speed 7.0 X
Track quality 100.0 %
Test CRC 31440A1E
Copy CRC 31440A1E
Accurately ripped (confidence 3) [6BCB4DF6] (AR v1)
Copy OK
Track 9
Filename C:\Users\John\Documents\Renee Geyer-Difficult Woman\09 Real.wav
Peak level 100.0 %
Extraction speed 6.2 X
Track quality 99.9 %
Test CRC 141390C9
Copy CRC 141390C9
Accurately ripped (confidence 3) [5EFCD0E7] (AR v1)
Copy OK
Track 10
Filename C:\Users\John\Documents\Renee Geyer-Difficult Woman\10 He Was Too Good to Me.wav
Peak level 79.0 %
Extraction speed 7.1 X
Track quality 100.0 %
Test CRC 9528CAF9
Copy CRC 9528CAF9
Accurately ripped (confidence 3) [4E3BEA06] (AR v1)
Copy OK
Track 11
Filename C:\Users\John\Documents\Renee Geyer-Difficult Woman\11 Trouble.wav
Peak level 85.3 %
Extraction speed 7.4 X
Track quality 100.0 %
Test CRC 8FEED230
Copy CRC 8FEED230
Accurately ripped (confidence 3) [46BB24DA] (AR v1)
Copy OK
All tracks accurately ripped
No errors occurred
End of status report
---- CUETools DB Plugin V2.1.3
[CTDB TOCID: f9qouZVADY2Y7oIysrk1jAb7emk-] disk not present in database, Submit result: f9qouZVADY2Y7oIysrk1jAb7emk- has been uploaded
==== Log checksum 508503A78EA3B034CAA8AC1825407BB220AAC8B71A15F7A896553B668DD5491A ====
------------------------------------------------------------
Exact Audio Copy V1.0 beta 3 from 29. August 2011
EAC extraction logfile from 13. March 2014, 18:13
Renée Geyer / Difficult Woman
Used drive : TSSTcorpCDDVDW SH-224BB Adapter: 0 ID: 2
Read mode : Secure
Utilize accurate stream : Yes
Defeat audio cache : Yes
Make use of C2 pointers : No
Read offset correction : 6
Overread into Lead-In and Lead-Out : No
Fill up missing offset samples with silence : Yes
Delete leading and trailing silent blocks : No
Null samples used in CRC calculations : Yes
Used interface : Native Win32 interface for Win NT & 2000
Gap handling : Appended to previous track
Used output format : User Defined Encoder
Selected bitrate : 896 kBit/s
Quality : High
Add ID3 tag : No
Command line compressor : C:\Program Files (x86)\FLAC\flac.exe
Additional command line options : -6 -V -T "ARTIST=%artist%" -T "TITLE=%title%" -T "ALBUM=%albumtitle%" -T "DATE=%year%" -T "TRACKNUMBER=%tracknr%" -T "GENRE=%genre%" -T "COMMENT=%comment%" -T "BAND=%albuminterpret%" -T "COMPOSER=%composer%" %haslyrics%--tag-from-file=LYRICS="%lyricsfile%"%haslyrics% -T "DISCNUMBER=%cdnumber%" -T "TOTALDISCS=%totalcds%" -T "TOTALTRACKS=%numtracks%" %hascover%--picture="%coverfile%"%hascover% %source% -o %dest%
TOC of the extracted CD
Track | Start | Length | Start sector | End sector
---------------------------------------------------------
1 | 0:00.00 | 4:15.25 | 0 | 19149
2 | 4:15.25 | 3:47.32 | 19150 | 36206
3 | 8:02.57 | 4:30.48 | 36207 | 56504
4 | 12:33.30 | 2:05.00 | 56505 | 65879
5 | 14:38.30 | 3:30.10 | 65880 | 81639
6 | 18:08.40 | 5:34.35 | 81640 | 106724
7 | 23:43.00 | 4:56.35 | 106725 | 128959
8 | 28:39.35 | 4:35.25 | 128960 | 149609
9 | 33:14.60 | 5:21.27 | 149610 | 173711
10 | 38:36.12 | 3:10.35 | 173712 | 187996
11 | 41:46.47 | 3:11.03 | 187997 | 202324
Track 1
Filename C:\Users\John\Documents\Renee Geyer-Difficult Woman\01 Close.wav
Pre-gap length 0:00:02.00
Peak level 100.0 %
Extraction speed 4.5 X
Track quality 100.0 %
Test CRC 6E349545
Copy CRC 6E349545
Accurately ripped (confidence 3) [107456E9] (AR v1)
Copy OK
Track 2
Filename C:\Users\John\Documents\Renee Geyer-Difficult Woman\02 Careless.wav
Pre-gap length 0:00:03.13
Peak level 100.0 %
Extraction speed 3.9 X
Track quality 99.9 %
Test CRC 696DB4F2
Copy CRC 696DB4F2
Accurately ripped (confidence 3) [59A38401] (AR v1)
Copy OK
Track 3
Filename C:\Users\John\Documents\Renee Geyer-Difficult Woman\03 Difficult Woman.wav
Pre-gap length 0:00:04.02
Peak level 100.0 %
Extraction speed 5.4 X
Track quality 100.0 %
Test CRC B08527E1
Copy CRC B08527E1
Accurately ripped (confidence 3) [6B87930B] (AR v1)
Copy OK
Track 4
Filename C:\Users\John\Documents\Renee Geyer-Difficult Woman\04 God only Knows.wav
Pre-gap length 0:00:03.57
Peak level 65.7 %
Extraction speed 4.9 X
Track quality 100.0 %
Test CRC 0BA87230
Copy CRC 0BA87230
Accurately ripped (confidence 3) [FB9F0CC5] (AR v1)
Copy OK
Track 5
Filename C:\Users\John\Documents\Renee Geyer-Difficult Woman\05 Foggy Highway.wav
Pre-gap length 0:00:02.06
Peak level 100.0 %
Extraction speed 4.5 X
Track quality 99.9 %
Test CRC D1022BCA
Copy CRC D1022BCA
Accurately ripped (confidence 3) [F675A75F] (AR v1)
Copy OK
Track 6
Filename C:\Users\John\Documents\Renee Geyer-Difficult Woman\06 Summer, Winter, Spring and Fall.wav
Peak level 100.0 %
Extraction speed 6.4 X
Track quality 100.0 %
Test CRC 30B88C31
Copy CRC 30B88C31
Accurately ripped (confidence 3) [0DB23FE7] (AR v1)
Copy OK
Track 7
Filename C:\Users\John\Documents\Renee Geyer-Difficult Woman\07 Just the Thought of You.wav
Peak level 100.0 %
Extraction speed 5.6 X
Track quality 99.9 %
Test CRC 99E50192
Copy CRC 99E50192
Accurately ripped (confidence 3) [44E3ACEB] (AR v1)
Copy OK
Track 8
Filename C:\Users\John\Documents\Renee Geyer-Difficult Woman\08 Sweet Guy.wav
Pre-gap length 0:00:01.97
Peak level 100.0 %
Extraction speed 7.0 X
Track quality 100.0 %
Test CRC 31440A1E
Copy CRC 31440A1E
Accurately ripped (confidence 3) [6BCB4DF6] (AR v1)
Copy OK
Track 9
Filename C:\Users\John\Documents\Renee Geyer-Difficult Woman\09 Real.wav
Peak level 100.0 %
Extraction speed 6.2 X
Track quality 99.9 %
Test CRC 141390C9
Copy CRC 141390C9
Accurately ripped (confidence 3) [5EFCD0E7] (AR v1)
Copy OK
Track 10
Filename C:\Users\John\Documents\Renee Geyer-Difficult Woman\10 He Was Too Good to Me.wav
Peak level 79.0 %
Extraction speed 7.1 X
Track quality 100.0 %
Test CRC 9528CAF9
Copy CRC 9528CAF9
Accurately ripped (confidence 3) [4E3BEA06] (AR v1)
Copy OK
Track 11
Filename C:\Users\John\Documents\Renee Geyer-Difficult Woman\11 Trouble.wav
Peak level 85.3 %
Extraction speed 7.4 X
Track quality 100.0 %
Test CRC 8FEED230
Copy CRC 8FEED230
Accurately ripped (confidence 3) [46BB24DA] (AR v1)
Copy OK
All tracks accurately ripped
No errors occurred
End of status report
---- CUETools DB Plugin V2.1.3
[CTDB TOCID: f9qouZVADY2Y7oIysrk1jAb7emk-] disk not present in database, Submit result: f9qouZVADY2Y7oIysrk1jAb7emk- has been uploaded
==== Log checksum 508503A78EA3B034CAA8AC1825407BB220AAC8B71A15F7A896553B668DD5491A ====
 
Содержание индексной карты (.CUE)
REM GENRE Pop
REM DATE 1994
REM DISCID 980A890B
REM COMMENT "ExactAudioCopy v1.0b3"
PERFORMER "Renee Geyer"
TITLE "Difficult Woman"
FILE "01 Close.wav" WAVE
TRACK 01 AUDIO
TITLE "Close"
PERFORMER "Renee Geyer"
INDEX 01 00:00:00
TRACK 02 AUDIO
TITLE "Careless"
PERFORMER "Renee Geyer"
INDEX 00 04:12:15
FILE "02 Careless.wav" WAVE
INDEX 01 00:00:00
TRACK 03 AUDIO
TITLE "Difficult Woman"
PERFORMER "Renee Geyer"
INDEX 00 03:43:30
FILE "03 Difficult Woman.wav" WAVE
INDEX 01 00:00:00
TRACK 04 AUDIO
TITLE "God only Knows"
PERFORMER "Renee Geyer"
INDEX 00 04:27:05
FILE "04 God only Knows.wav" WAVE
INDEX 01 00:00:00
TRACK 05 AUDIO
TITLE "Foggy Highway"
PERFORMER "Renee Geyer"
INDEX 00 02:02:70
FILE "05 Foggy Highway.wav" WAVE
INDEX 01 00:00:00
FILE "06 Summer, Winter, Spring and Fall.wav" WAVE
TRACK 06 AUDIO
TITLE "Summer, Winter, Spring and Fall"
PERFORMER "Renee Geyer"
INDEX 01 00:00:00
FILE "07 Just the Thought of You.wav" WAVE
TRACK 07 AUDIO
TITLE "Just the Thought of You"
PERFORMER "Renee Geyer"
INDEX 01 00:00:00
TRACK 08 AUDIO
TITLE "Sweet Guy"
PERFORMER "Renee Geyer"
INDEX 00 04:54:37
FILE "08 Sweet Guy.wav" WAVE
INDEX 01 00:00:00
FILE "09 Real.wav" WAVE
TRACK 09 AUDIO
TITLE "Real"
PERFORMER "Renee Geyer"
INDEX 01 00:00:00
FILE "10 He Was Too Good to Me.wav" WAVE
TRACK 10 AUDIO
TITLE "He Was Too Good to Me"
PERFORMER "Renee Geyer"
INDEX 01 00:00:00
FILE "11 Trouble.wav" WAVE
TRACK 11 AUDIO
TITLE "Trouble"
PERFORMER "Renee Geyer"
INDEX 01 00:00:00
 
Лог проверки качества
-----------------------
DON'T MODIFY THIS FILE
-----------------------
PERFORMER: auCDtect Task Manager, ver. 1.6.0 RC1 build 1.6.0.1
Copyright (c) 2008-2010 y-soft. All rights reserved
http://y-soft.org
ANALYZER: auCDtect: CD records authenticity detector, version 0.8.2
Copyright (c) 2004 Oleg Berngardt. All rights reserved.
Copyright (c) 2004 Alexander Djourik. All rights reserved.
FILE: 11 Trouble.flac
Size: 18605968 Hash: B445515AE7AAE4E71CC059CD5E2E3D13 Accuracy: -m0
Conclusion: CDDA 100%
Signature: DF4F46BFA154FFE0A57801101968D77980166D18
FILE: 10 He Was Too Good to Me.flac
Size: 17357493 Hash: B9A15E7D8440050F624DC0943D4E1E47 Accuracy: -m0
Conclusion: CDDA 100%
Signature: 1D4C0DD7BCDF58B7B520DE587629B244563AEE8A
FILE: 09 Real.flac
Size: 31875162 Hash: 7B0E6EDAAEBBBB92D7D76F3A5B957954 Accuracy: -m0
Conclusion: CDDA 100%
Signature: FCB32A310FFC08365B08825521A91B57D5C08904
FILE: 08 Sweet Guy.flac
Size: 26259417 Hash: 8E20D1E6ECD6F0FB70A6768E41BF20BB Accuracy: -m0
Conclusion: CDDA 100%
Signature: 754F7693BC1A912AE0F630D0DF64C153B30871D0
FILE: 07 Just the Thought of You.flac
Size: 31623505 Hash: 987A16E434D8488E4C3C1C848C6FC030 Accuracy: -m0
Conclusion: CDDA 100%
Signature: 1DB5F0136EDC1754B199F5718C40DE63708A7D8A
FILE: 06 Summer, Winter, Spring and Fall.flac
Size: 34145163 Hash: 1A64FDE971060AC8D0286D5B11333577 Accuracy: -m0
Conclusion: CDDA 100%
Signature: 7F36968C681B8A49EF3AE49CAEBC495C7493CEBC
FILE: 05 Foggy Highway.flac
Size: 20403528 Hash: FF16A3D943B4632F61B9AC1C8A20975B Accuracy: -m0
Conclusion: CDDA 100%
Signature: 54D508118C1AC0197AE1BA5B455D9B50A50F5465
FILE: 04 God only Knows.flac
Size: 9848789 Hash: F83B91977D4C55ACED04370DDEFAE310 Accuracy: -m0
Conclusion: CDDA 100%
Signature: 3CACCFE171B0312B4B1E3EA0050A7724B8B42DEB
FILE: 03 Difficult Woman.flac
Size: 27201709 Hash: 8F1C0F9E6790AC461788B5296C13FFCA Accuracy: -m0
Conclusion: CDDA 100%
Signature: FA74FD6942C0E5A81536652DD9713DE902FFE0EA
FILE: 02 Careless.flac
Size: 24709767 Hash: 91AACDCED3FE8DDFA20FC0307D327E8D Accuracy: -m0
Conclusion: CDDA 99%
Signature: 661CCF52E961B48FBF11B97C15EA35F13758B3C1
FILE: 01 Close.flac
Size: 25736452 Hash: EAFB2A41E3F05B95EACE78B0255B05C8 Accuracy: -m0
Conclusion: CDDA 100%
Signature: 2F9389DD00CA39E7F6909359234DD54913DAF681
 
Об альбоме (сборнике)
https://www.discogs.com/Renee-Geyer-Difficult-Woman/release/4531868
Larrikin - LRJ342 CD Format: CD, Album Country: Australia Released: 1994
Credits
Backing Vocals – Carmen Twilley (tracks: 7), Julia Tillman Waters (tracks: 7), Maxine Waters (tracks: 7), Renee Geyer (tracks: 1, 2, 6 to 9)
Bass – Jimmy Haslip (tracks: 1 to 3, 5 to 10)
Drums – John Molo (tracks: 1 to 3, 5 to 11)
Electric Upright Bass – Greg Boaz* (tracks: 11)
Engineer – Jeff Shannon, Richard Landers, Robert Carranza, Warren Croyle
Engineer, Mixed By – Terry Becker
Guitar – Alan Johannes (tracks: 1), Dori Caymmi* (tracks: 6), Johnny Lee Schell (tracks: 1 to 3, 5 to 9)
Keyboards – Marty Greb (tracks: 1 to 9)
Mastered By – Alan Yoshida
Percussion – Lenny Castro (tracks: 1, 2, 5, 6, 9)
Piano – Paul Galitano (tracks: 10)
Producer – Paul Kelly (2)
Sitar – Alan Johannes (tracks: 1)
Trumpet – "Patches" Stewart (tracks: 9)
Whistle [Solo] – Renee Geyer (tracks: 5)
Приватный:
Да (DHT отключён)
Размер:
256.28 Мб (268,730,787 байт) » файлов: 19
Участники:
0 раздают, 0 качают (0 участников всего)
Внешние участники:
1 раздают, 0 качают (1 участников всего) [ Обновить ]
Есть вопросы - пишите личное сообщение пользователю M0p94ok.
15:55
82
Нет комментариев. Ваш будет первым!