Поиск

(Funk / Soul / R'n'B) [CD] Alan Moorhouse - The Big Beat - Volume 2 - 2007 (1970), FLAC (image+.cue), lossless

(Funk / Soul / R'n'B) [CD] Alan Moorhouse - The Big Beat - Volume 2 - 2007 (1970), FLAC (image+.cue), lossless
Треклист:
Alan Moorhouse / The Big Beat - Volume 2
Жанр: Funk / Soul / R'n'B
Носитель: CD
Страна-производитель диска (релиза): unknown
Год издания: 2007 (1970)
Издатель (лейбл): KPM Music
Номер по каталогу: Tuch 1067CD
Страна исполнителя (группы): UK & US
Аудиокодек: FLAC (*.flac)
Тип рипа: image+.cue
Битрейт аудио: lossless
Продолжительность: 00:33:28
Источник (релизер): собственный рип
Наличие сканов в содержимом раздачи: да
Треклист:
1 That's Nice 2:14
2 West Coastin 2:26
3 Pop Pastime 2:02
4 Boss Man 2:01
5 Soul Skimmer 2:07
6 Heavy Bopper 1:31
7 Angelic Gas 2:13
8 Expo In Tokyo 2:18
9 Nashville Country 2:36
10 Hillbilly Child 2:29
11 Rock It Again 2:26
12 Rockin Boogie 2:11
13 Pop Mandolin 2:15
14 Psychodale 3:07
 
Лог создания рипа
Exact Audio Copy V1.1 from 23. June 2015
Отчёт EAC об извлечении, выполненном 19. февраля 2016, 13:53
KPM / The Big Beat Volume 2
Дисковод: hp CDDVDW SU-208CB Adapter: 0 ID: 0
Режим чтения : Достоверность
Использование точного потока : Да
Отключение кэша аудио : Да
Использование указателей C2 : Нет
Коррекция смещения при чтении : 6
Способность читать области Lead-in и Lead-out : Нет
Заполнение пропущенных сэмплов тишиной : Да
Удаление блоков с тишиной в начале и конце : Нет
При вычислениях CRC использовались нулевые сэмплы : Да
Интерфейс : Установленный внешний ASPI-интерфейс
Выходной формат : Пользовательский кодировщик
Выбранный битрейт : 1024 kBit/s
Качество : Высокий
Добавление ID3-тега : Нет
Утилита сжатия : C:\Program Files (x86)\Exact Audio Copy\Flac\flac.exe
Дополнительные параметры : -V -8 -T "Date=%year%" -T "Genre=%genre%" %source%
TOC извлечённого CD
Трек | Старт | Длительность | Начальный сектор | Конечный сектор
---------------------------------------------------------------------
1 | 0:00.00 | 2:16.55 | 0 | 10254
2 | 2:16.55 | 2:28.16 | 10255 | 21370
3 | 4:44.71 | 2:04.66 | 21371 | 30736
4 | 6:49.62 | 2:03.58 | 30737 | 40019
5 | 8:53.45 | 2:09.23 | 40020 | 49717
6 | 11:02.68 | 2:33.00 | 49718 | 61192
7 | 13:35.68 | 2:15.09 | 61193 | 71326
8 | 15:51.02 | 2:20.03 | 71327 | 81829
9 | 18:11.05 | 2:38.68 | 81830 | 93747
10 | 20:49.73 | 2:31.52 | 93748 | 105124
11 | 23:21.50 | 2:28.68 | 105125 | 116292
12 | 25:50.43 | 2:13.31 | 116293 | 126298
13 | 28:03.74 | 2:17.04 | 126299 | 136577
14 | 30:21.03 | 3:06.56 | 136578 | 150583
Характеристики диапазона извлечения и сообщения об ошибках
Выбранный диапазон
Имя файла C:\Users\Пользователь\Music\The Big Beat Volume 2\KPM - The Big Beat Volume 2.wav
Пиковый уровень 96.6 %
Скорость извлечения 3.3 X
Качество диапазона 100.0 %
CRC теста 35685597
CRC копии 35685597
Копирование... OK
Ошибок не произошло
AccurateRip: сводка
Трек 1 : извлечено точно (доверие 2) [4BD3E6D4] (AR v2)
Трек 2 : извлечено точно (доверие 2) [661A0375] (AR v2)
Трек 3 : извлечено точно (доверие 2) [195CD359] (AR v2)
Трек 4 : извлечено точно (доверие 2) [1D028DB8] (AR v2)
Трек 5 : извлечено точно (доверие 2) [129233E6] (AR v2)
Трек 6 : извлечено точно (доверие 2) [FBF34725] (AR v2)
Трек 7 : извлечено точно (доверие 2) [7267865A] (AR v2)
Трек 8 : извлечено точно (доверие 2) [435778DE] (AR v2)
Трек 9 : извлечено точно (доверие 2) [DD2B7768] (AR v2)
Трек 10 : извлечено точно (доверие 2) [B7FD19DC] (AR v2)
Трек 11 : извлечено точно (доверие 2) [A1AE91D2] (AR v2)
Трек 12 : извлечено точно (доверие 2) [31BEC0D5] (AR v2)
Трек 13 : извлечено точно (доверие 2) [8D21A05E] (AR v2)
Трек 14 : извлечено точно (доверие 2) [41060127] (AR v2)
Все треки извлечены точно
Конец отчёта
==== Контрольная сумма отчёта 87BA97D1CFE16C831A11606479F3159A92BE688BFD787E2F0C7881280C1D78B8 ====
 
Об исполнителе (группе)
Composed By – Alan Moorhouse
Mastered By [Remastering] – Guy Davy
Reissue Producer – Tim "Love" Lee
 
Об альбоме (сборнике)
KPM 1000 Series.
Originally Released 1970
Приватный:
Нет (DHT включён)
Размер:
229.67 Мб (240,824,744 байт) » файлов: 7
Участники:
0 раздают, 0 качают (0 участников всего)
Внешние участники:
3 раздают, 1 качают (4 участников всего) [ Обновить ]
Есть вопросы - пишите личное сообщение пользователю M0p94ok.
10:04
104
Нет комментариев. Ваш будет первым!