Поиск

(Funk, Soul, R&B, Disco) [CD] Stevie Wonder - Stevie Wonder's Original Musicquarium I, Volumes I & II (2CD) - 1984, FLAC (image+.cue), lossless

(Funk, Soul, R&B, Disco) [CD] Stevie Wonder - Stevie Wonder's Original Musicquarium I, Volumes I & II (2CD) - 1984, FLAC (image+.cue), lossless
Треклист:
Stevie Wonder / Stevie Wonder's Original Musicquarium I, Volumes I & II
Жанр: Funk, Soul, R&B, Disco
Носитель: CD
Страна-производитель диска (релиза): USA
Год издания: 1984
Издатель (лейбл): Tamla, BMG
Номер по каталогу: MOTD2-6002, D211117
Страна исполнителя (группы): USA
Аудиокодек: FLAC (*.flac)
Тип рипа: image+.cue
Битрейт аудио: lossless
Продолжительность: 01:25:53
Источник (релизер): Boris1
Наличие сканов в содержимом раздачи: да
Треклист:
CD1
1. Superstition
2. You Haven't Done Nothin
3. Living For The City
4. Front Line
5. Superwoman (Where Were You When I Needed You)
6. Send One Your Love
7. You Are The Sunshine of My Life
8. Ribbon In The Sky
CD2
1. Higher Ground
2. Sir Duke
3. Master Blaster (Jammin')
4. Boogie On Reggae Woman
5. That Girl
6. I Wish
7. Isn't She Lovely
8. Do I Do
 
CD 1
 
Лог создания рипа
Exact Audio Copy V1.0 beta 3 from 29. August 2011
EAC extraction logfile from 24. February 2016, 13:16
Stevie Wonder / Original Musiquarium I Vol I
Used drive : PIONEER BD-RW BDR-TD03 Adapter: 0 ID: 1
Read mode : Secure
Utilize accurate stream : Yes
Defeat audio cache : Yes
Make use of C2 pointers : No
Read offset correction : 667
Overread into Lead-In and Lead-Out : No
Fill up missing offset samples with silence : Yes
Delete leading and trailing silent blocks : No
Null samples used in CRC calculations : Yes
Used interface : Native Win32 interface for Win NT & 2000
Used output format : User Defined Encoder
Selected bitrate : 768 kBit/s
Quality : High
Add ID3 tag : No
Command line compressor : C:\Program Files (x86)\Exact Audio Copy\FLAC\FLAC.EXE
Additional command line options : -6 -V -T "ARTIST=%artist%" -T "TITLE=%title%" -T "ALBUM=%albumtitle%" -T "DATE=%year%" -T "TRACKNUMBER=%tracknr%" -T "GENRE=%genre%" -T "COMMENT=%comment%" -T "BAND=%albuminterpret%" -T "ALBUMARTIST=%albuminterpret%" -T "COMPOSER=%composer%" %haslyrics%--tag-from-file=LYRICS="%lyricsfile%"%haslyrics% -T "DISCNUMBER=%cdnumber%" -T "TOTALDISCS=%totalcds%" -T "TOTALTRACKS=%numtracks%" %hascover%--picture="%coverfile%"%hascover% %source% -o %dest%
TOC of the extracted CD
Track | Start | Length | Start sector | End sector
---------------------------------------------------------
1 | 0:00.00 | 4:26.72 | 0 | 20021
2 | 4:26.72 | 3:29.23 | 20022 | 35719
3 | 7:56.20 | 7:25.10 | 35720 | 69104
4 | 15:21.30 | 5:57.02 | 69105 | 95881
5 | 21:18.32 | 7:58.43 | 95882 | 131774
6 | 29:17.00 | 4:01.05 | 131775 | 149854
7 | 33:18.05 | 2:50.57 | 149855 | 162661
8 | 36:08.62 | 5:38.43 | 162662 | 188054
Range status and errors
Selected range
Filename C:\Users\Deris\Desktop\kpnemo.eu\StevAquarium\cd1\Stevie Wonder - Original Musiquarium I Vol I.wav
Peak level 100.0 %
Extraction speed 4.3 X
Range quality 100.0 %
Test CRC DFE1C7B0
Copy CRC DFE1C7B0
Copy OK
No errors occurred
AccurateRip summary
Track 1 accurately ripped (confidence 17) [1357EF15] (AR v2)
Track 2 accurately ripped (confidence 16) [8227BDEE] (AR v2)
Track 3 accurately ripped (confidence 17) [606E4A4F] (AR v2)
Track 4 accurately ripped (confidence 17) [95B28F16] (AR v2)
Track 5 accurately ripped (confidence 17) [B57AE41D] (AR v2)
Track 6 accurately ripped (confidence 17) [020BD581] (AR v2)
Track 7 accurately ripped (confidence 18) [D77E1C23] (AR v2)
Track 8 accurately ripped (confidence 18) [867B62A7] (AR v2)
All tracks accurately ripped
End of status report
---- CUETools DB Plugin V2.1.3
[CTDB TOCID: ybGLtzj5lr8aql5ja6zgF6FRzFE-] found, Submit result: ybGLtzj5lr8aql5ja6zgF6FRzFE- has been confirmed
[6d4270e7] (12/13) Accurately ripped
[87ab40c5] (01/13) No match
==== Log checksum 6D0D3961BE822003BEE3EF58B196C6B461EC224E8FBCF0F63DB1A9E116AE53A2 ====
 
Содержание индексной карты (.CUE)
REM GENRE "Top 40"
REM DATE 1984
REM DISCID 6009CB08
REM COMMENT "ExactAudioCopy v1.0b3"
PERFORMER "Stevie Wonder"
TITLE "Original Musiquarium I Vol I"
FILE "Stevie Wonder - Original Musiquarium I Vol I.flac" WAVE
TRACK 01 AUDIO
TITLE "Superstition"
PERFORMER "Stevie Wonder"
INDEX 01 00:00:00
TRACK 02 AUDIO
TITLE "You Haven't Done Nothin "
PERFORMER "Stevie Wonder"
INDEX 00 04:26:71
INDEX 01 04:26:72
TRACK 03 AUDIO
TITLE "Living For The City"
PERFORMER "Stevie Wonder"
INDEX 00 07:56:18
INDEX 01 07:56:20
TRACK 04 AUDIO
TITLE "Front Line"
PERFORMER "Stevie Wonder"
INDEX 00 15:21:28
INDEX 01 15:21:30
TRACK 05 AUDIO
TITLE "Superwoman (Where Were You When I Needed You)"
PERFORMER "Stevie Wonder"
INDEX 00 21:18:30
INDEX 01 21:18:32
TRACK 06 AUDIO
TITLE "Send One Your Love"
PERFORMER "Stevie Wonder"
INDEX 00 29:16:73
INDEX 01 29:17:00
TRACK 07 AUDIO
TITLE "You Are The Sunshine of My Life"
PERFORMER "Stevie Wonder"
INDEX 00 33:18:03
INDEX 01 33:18:05
TRACK 08 AUDIO
TITLE "Ribbon In The Sky"
PERFORMER "Stevie Wonder"
INDEX 00 36:08:61
INDEX 01 36:08:62
 
Лог проверки качества
foobar2000 1.1.10 / Dynamic Range Meter 1.1.1
log date: 2016-03-01 06:57:08
--------------------------------------------------------------------------------
Analyzed: Stevie Wonder / Original Musiquarium I Vol I
--------------------------------------------------------------------------------
DR Peak RMS Duration Track
--------------------------------------------------------------------------------
DR13 0.00 dB -15.64 dB 4:27 ?-Superstition
DR13 -0.50 dB -15.41 dB 3:29 ?-You Haven't Done Nothin
DR13 0.00 dB -15.46 dB 7:25 ?-Living For The City
DR15 0.00 dB -17.32 dB 5:57 ?-Front Line
DR11 -3.33 dB -17.57 dB 7:59 ?-Superwoman (Where Were You When I Needed You)
DR16 0.00 dB -18.20 dB 4:01 ?-Send One Your Love
DR13 -0.76 dB -17.44 dB 2:51 ?-You Are The Sunshine of My Life
DR14 0.00 dB -18.90 dB 5:39 ?-Ribbon In The Sky
--------------------------------------------------------------------------------
Number of tracks: 8
Official DR value: DR14
Samplerate: 44100 Hz
Channels: 2
Bits per sample: 16
Bitrate: 863 kbps
Codec: FLAC
================================================================================
 
CD2
 
Лог создания рипа
Exact Audio Copy V1.0 beta 3 from 29. August 2011
EAC extraction logfile from 24. February 2016, 13:52
Stevie Wonder / Original Musiquarium 1 Vol. 2
Used drive : PIONEER BD-RW BDR-TD03 Adapter: 0 ID: 1
Read mode : Secure
Utilize accurate stream : Yes
Defeat audio cache : Yes
Make use of C2 pointers : No
Read offset correction : 667
Overread into Lead-In and Lead-Out : No
Fill up missing offset samples with silence : Yes
Delete leading and trailing silent blocks : No
Null samples used in CRC calculations : Yes
Used interface : Native Win32 interface for Win NT & 2000
Used output format : User Defined Encoder
Selected bitrate : 768 kBit/s
Quality : High
Add ID3 tag : No
Command line compressor : C:\Program Files (x86)\Exact Audio Copy\FLAC\FLAC.EXE
Additional command line options : -6 -V -T "ARTIST=%artist%" -T "TITLE=%title%" -T "ALBUM=%albumtitle%" -T "DATE=%year%" -T "TRACKNUMBER=%tracknr%" -T "GENRE=%genre%" -T "COMMENT=%comment%" -T "BAND=%albuminterpret%" -T "ALBUMARTIST=%albuminterpret%" -T "COMPOSER=%composer%" %haslyrics%--tag-from-file=LYRICS="%lyricsfile%"%haslyrics% -T "DISCNUMBER=%cdnumber%" -T "TOTALDISCS=%totalcds%" -T "TOTALTRACKS=%numtracks%" %hascover%--picture="%coverfile%"%hascover% %source% -o %dest%
TOC of the extracted CD
Track | Start | Length | Start sector | End sector
---------------------------------------------------------
1 | 0:00.00 | 3:47.35 | 0 | 17059
2 | 3:47.35 | 3:51.70 | 17060 | 34454
3 | 7:39.30 | 5:07.62 | 34455 | 57541
4 | 12:47.17 | 4:55.53 | 57542 | 79719
5 | 17:42.70 | 5:13.70 | 79720 | 103264
6 | 22:56.65 | 4:13.60 | 103265 | 122299
7 | 27:10.50 | 6:33.30 | 122300 | 151804
8 | 33:44.05 | 10:30.20 | 151805 | 199074
Range status and errors
Selected range
Filename C:\Users\Deris\Desktop\kpnemo.eu\StevAquarium\cd2\Stevie Wonder - Original Musiquarium 1 Vol. 2.wav
Peak level 100.0 %
Extraction speed 4.4 X
Range quality 99.9 %
Test CRC 0547E424
Copy CRC 0547E424
Copy OK
No errors occurred
AccurateRip summary
Track 1 accurately ripped (confidence 10) [6B3AD2BB] (AR v2)
Track 2 accurately ripped (confidence 9) [D215F99F] (AR v2)
Track 3 accurately ripped (confidence 9) [9CA61089] (AR v2)
Track 4 accurately ripped (confidence 9) [FB21A67D] (AR v2)
Track 5 accurately ripped (confidence 9) [86B571B9] (AR v2)
Track 6 accurately ripped (confidence 10) [99DA2C00] (AR v2)
Track 7 accurately ripped (confidence 9) [D349465A] (AR v2)
Track 8 accurately ripped (confidence 9) [9F0EBE36] (AR v2)
All tracks accurately ripped
End of status report
---- CUETools DB Plugin V2.1.3
[CTDB TOCID: _cwcMZB.jFHz6n7h.rzGqJ96Sas-] found, Submit result: _cwcMZB.jFHz6n7h.rzGqJ96Sas- has been confirmed
[837f1a26] (15/15) Accurately ripped
==== Log checksum 45EEFE4CFBD735B324223B7C90E79866887792549DE93F4EADB7A9D7C5E9E804 ====
 
Содержание индексной карты (.CUE)
REM GENRE Rock
REM DATE 1984
REM DISCID 640A5E08
REM COMMENT "ExactAudioCopy v1.0b3"
PERFORMER "Stevie Wonder"
TITLE "Original Musiquarium 1 Vol. 2"
FILE "Stevie Wonder - Original Musiquarium 1 Vol. 2.flac" WAVE
TRACK 01 AUDIO
TITLE "Higher Ground"
PERFORMER "Stevie Wonder"
INDEX 01 00:00:00
TRACK 02 AUDIO
TITLE "Sir Duke"
PERFORMER "Stevie Wonder"
INDEX 01 03:47:35
TRACK 03 AUDIO
TITLE "Master Blaster (Jammin')"
PERFORMER "Stevie Wonder"
INDEX 00 07:39:29
INDEX 01 07:39:30
TRACK 04 AUDIO
TITLE "Boogie On Reggae Woman"
PERFORMER "Stevie Wonder"
INDEX 00 12:47:16
INDEX 01 12:47:17
TRACK 05 AUDIO
TITLE "That Girl"
PERFORMER "Stevie Wonder"
INDEX 00 17:42:69
INDEX 01 17:42:70
TRACK 06 AUDIO
TITLE "I Wish"
PERFORMER "Stevie Wonder"
INDEX 00 22:56:64
INDEX 01 22:56:65
TRACK 07 AUDIO
TITLE "Isn't She Lovely"
PERFORMER "Stevie Wonder"
INDEX 00 27:10:49
INDEX 01 27:10:50
TRACK 08 AUDIO
TITLE "Do I Do"
PERFORMER "Stevie Wonder"
INDEX 00 33:44:04
INDEX 01 33:44:05
 
Лог проверки качества
foobar2000 1.1.10 / Dynamic Range Meter 1.1.1
log date: 2016-03-01 06:57:55
--------------------------------------------------------------------------------
Analyzed: Stevie Wonder / Original Musiquarium 1 Vol. 2
--------------------------------------------------------------------------------
DR Peak RMS Duration Track
--------------------------------------------------------------------------------
DR15 -0.93 dB -18.51 dB 3:47 ?-Higher Ground
DR14 -0.32 dB -17.27 dB 3:52 ?-Sir Duke
DR17 0.00 dB -19.02 dB 5:08 ?-Master Blaster (Jammin')
DR14 -1.00 dB -18.61 dB 4:56 ?-Boogie On Reggae Woman
DR14 0.00 dB -17.11 dB 5:14 ?-That Girl
DR15 -1.36 dB -18.27 dB 4:14 ?-I Wish
DR15 -1.60 dB -18.49 dB 6:33 ?-Isn't She Lovely
DR15 0.00 dB -17.77 dB 10:30 ?-Do I Do
--------------------------------------------------------------------------------
Number of tracks: 8
Official DR value: DR15
Samplerate: 44100 Hz
Channels: 2
Bits per sample: 16
Bitrate: 889 kbps
Codec: FLAC
================================================================================
Приватный:
Нет (DHT включён)
Размер:
567.40 Мб (594,961,448 байт) » файлов: 18
Участники:
68 раздают, 0 качают (68 участников всего)
Внешние участники:
8 раздают, 2 качают (10 участников всего) [ Обновить ]
Есть вопросы - пишите личное сообщение пользователю M0p94ok.
10:06
84
Нет комментариев. Ваш будет первым!