Поиск

(Funk, Soul, R&B) [CD] The Jones Girls - The Jones Girls (1979) + At Peace With Woman (1980) - 1998 (2in1), FLAC (tracks+.cue), lossless

(Funk, Soul, R&B) [CD] The Jones Girls - The Jones Girls (1979) + At Peace With Woman (1980) - 1998 (2in1), FLAC (tracks+.cue), lossless
Треклист:
The Jones Girls / The Jones Girls (1979) + At Peace With Woman (1980) Жанр: Funk, Soul, R&B
Носитель: CD
Год издания: 1998
Издатель (лейбл): Westside Records
Номер по каталогу: WESM 571
Аудиокодек: FLAC (*.flac)
Тип рипа: tracks+.cue
Битрейт аудио: lossless
Продолжительность: 75:53
Источник (релизер): What.cd (OG_Loco)
Наличие сканов в содержимом раздачи: нет
Треклист:
01. This Feeling's Killing Me (3:34)
02. You Made Me Love You (4:54)
03. Show Love Today (3:56)
04. You Gonna Make Me Love Somebody Else (4:34)
05. Life Goes On (4:31)
06. Who Can I Run To? (3:27)
07. We're A Melody (5:25)
08. I'm At Your Mercy (4:50)
09. Children Of The Night (5:13)
10. Let's Celebrate (Sittin' On Top Of The World) (4:22)
11. Dance Turned Into A Romance (4:31)
12. I Close My Eyes (4:56)
13. At Peace With Woman (4:32)
14. When I'm Gone (4:51)
15. I Just Love The Man (4:44)
16. Back In The Day (4:01)
17. Eternally (Bonus Track) (3:33)
 
 
Лог создания рипа
Exact Audio Copy V0.99 prebeta 5 from 4. May 2009
EAC extraction logfile from 17. July 2010, 13:29
The Jones Girls / The Jones Girls + At Peace With Woman
Used drive : TSSTcorpCDDVDW SH-S223F Adapter: 1 ID: 0
Read mode : Secure
Utilize accurate stream : Yes
Defeat audio cache : Yes
Make use of C2 pointers : No
Read offset correction : 6
Overread into Lead-In and Lead-Out : No
Fill up missing offset samples with silence : Yes
Delete leading and trailing silent blocks : No
Null samples used in CRC calculations : Yes
Used interface : Native Win32 interface for Win NT & 2000
Gap handling : Appended to previous track
Used output format : User Defined Encoder
Selected bitrate : 768 kBit/s
Quality : High
Add ID3 tag : No
Command line compressor : C:\Program Files (x86)\Exact Audio Copy\FLAC\FLAC.EXE
Additional command line options : -6 -V -T "ARTIST=%a" -T "TITLE=%t" -T "ALBUM=%g" -T "DATE=%y" -T "TRACKNUMBER=%n" -T "GENRE=%m" -T "COMMENT=%e" %s -o %d
TOC of the extracted CD
Track | Start | Length | Start sector | End sector
---------------------------------------------------------
1 | 0:00.00 | 3:34.02 | 0 | 16051
2 | 3:34.02 | 4:53.40 | 16052 | 38066
3 | 8:27.42 | 3:55.70 | 38067 | 55761
4 | 12:23.37 | 4:33.38 | 55762 | 76274
5 | 16:57.00 | 4:31.15 | 76275 | 96614
6 | 21:28.15 | 3:26.62 | 96615 | 112126
7 | 24:55.02 | 5:25.20 | 112127 | 136521
8 | 30:20.22 | 4:49.55 | 136522 | 158251
9 | 35:10.02 | 5:12.50 | 158252 | 181701
10 | 40:22.52 | 4:22.10 | 181702 | 201361
11 | 44:44.62 | 4:31.23 | 201362 | 221709
12 | 49:16.10 | 4:56.15 | 221710 | 243924
13 | 54:12.25 | 4:32.22 | 243925 | 264346
14 | 58:44.47 | 4:50.53 | 264347 | 286149
15 | 63:35.25 | 4:44.00 | 286150 | 307449
16 | 68:19.25 | 4:00.52 | 307450 | 325501
17 | 72:20.02 | 3:32.40 | 325502 | 341441
Track 1
Filename C:\Jones Girls, The\1998 -- The Jones Girls + At Peace With Woman (Remastered UK Reissue)\01 This Feeling's Killing Me.wav
Pre-gap length 0:00:02.00
Peak level 98.8 %
Track quality 100.0 %
Test CRC A6E9C8E9
Copy CRC A6E9C8E9
Accurately ripped (confidence 2) [B034333B]
Copy OK
Track 2
Filename C:\Jones Girls, The\1998 -- The Jones Girls + At Peace With Woman (Remastered UK Reissue)\02 You Made Me Love You.wav
Pre-gap length 0:00:02.47
Peak level 98.8 %
Track quality 99.9 %
Test CRC 2E8CBCD8
Copy CRC 2E8CBCD8
Accurately ripped (confidence 2) [EDB6246D]
Copy OK
Track 3
Filename C:\Jones Girls, The\1998 -- The Jones Girls + At Peace With Woman (Remastered UK Reissue)\03 Show Love Today.wav
Pre-gap length 0:00:02.47
Peak level 98.8 %
Track quality 100.0 %
Test CRC 2D44906E
Copy CRC 2D44906E
Accurately ripped (confidence 2) [96CDACCD]
Copy OK
Track 4
Filename C:\Jones Girls, The\1998 -- The Jones Girls + At Peace With Woman (Remastered UK Reissue)\04 You Gonna Make Me Love Somebody Else.wav
Pre-gap length 0:00:02.48
Peak level 98.8 %
Track quality 100.0 %
Test CRC BEBA7973
Copy CRC BEBA7973
Accurately ripped (confidence 2) [BF3F78FA]
Copy OK
Track 5
Filename C:\Jones Girls, The\1998 -- The Jones Girls + At Peace With Woman (Remastered UK Reissue)\05 Life Goes On.wav
Pre-gap length 0:00:02.48
Peak level 98.8 %
Track quality 100.0 %
Test CRC 797015D7
Copy CRC 797015D7
Accurately ripped (confidence 2) [8A26DF01]
Copy OK
Track 6
Filename C:\Jones Girls, The\1998 -- The Jones Girls + At Peace With Woman (Remastered UK Reissue)\06 Who Can I Run To.wav
Pre-gap length 0:00:02.48
Peak level 98.6 %
Track quality 100.0 %
Test CRC 5D475814
Copy CRC 5D475814
Accurately ripped (confidence 2) [583B3829]
Copy OK
Track 7
Filename C:\Jones Girls, The\1998 -- The Jones Girls + At Peace With Woman (Remastered UK Reissue)\07 We're A Melody.wav
Pre-gap length 0:00:02.47
Peak level 93.6 %
Track quality 100.0 %
Test CRC 3ADE3230
Copy CRC 3ADE3230
Accurately ripped (confidence 2) [F9900540]
Copy OK
Track 8
Filename C:\Jones Girls, The\1998 -- The Jones Girls + At Peace With Woman (Remastered UK Reissue)\08 I'm At Your Mercy.wav
Pre-gap length 0:00:02.47
Peak level 98.8 %
Track quality 100.0 %
Test CRC A7B2BABA
Copy CRC A7B2BABA
Accurately ripped (confidence 2) [262B21D2]
Copy OK
Track 9
Filename C:\Jones Girls, The\1998 -- The Jones Girls + At Peace With Woman (Remastered UK Reissue)\09 Children Of The Night.wav
Pre-gap length 0:00:02.47
Peak level 98.8 %
Track quality 100.0 %
Test CRC C97E870E
Copy CRC C97E870E
Accurately ripped (confidence 2) [636CF330]
Copy OK
Track 10
Filename C:\Jones Girls, The\1998 -- The Jones Girls + At Peace With Woman (Remastered UK Reissue)\10 Let's Celebrate (Sittin' On Top Of The World).wav
Pre-gap length 0:00:02.47
Peak level 93.3 %
Track quality 100.0 %
Test CRC A9DFBDB5
Copy CRC A9DFBDB5
Accurately ripped (confidence 2) [FA111116]
Copy OK
Track 11
Filename C:\Jones Girls, The\1998 -- The Jones Girls + At Peace With Woman (Remastered UK Reissue)\11 Dance Turned Into A Romance.wav
Pre-gap length 0:00:02.47
Peak level 93.3 %
Track quality 99.9 %
Test CRC 3325E47B
Copy CRC 3325E47B
Accurately ripped (confidence 2) [3AA14D48]
Copy OK
Track 12
Filename C:\Jones Girls, The\1998 -- The Jones Girls + At Peace With Woman (Remastered UK Reissue)\12 I Close My Eyes.wav
Pre-gap length 0:00:02.48
Peak level 56.7 %
Track quality 99.9 %
Test CRC 8C7FB5E2
Copy CRC 8C7FB5E2
Accurately ripped (confidence 2) [7A9C8E86]
Copy OK
Track 13
Filename C:\Jones Girls, The\1998 -- The Jones Girls + At Peace With Woman (Remastered UK Reissue)\13 At Peace With Woman.wav
Pre-gap length 0:00:02.48
Peak level 83.1 %
Track quality 99.9 %
Test CRC EA38E45D
Copy CRC EA38E45D
Accurately ripped (confidence 2) [EFECA864]
Copy OK
Track 14
Filename C:\Jones Girls, The\1998 -- The Jones Girls + At Peace With Woman (Remastered UK Reissue)\14 When I'm Gone.wav
Pre-gap length 0:00:02.47
Peak level 83.1 %
Track quality 100.0 %
Test CRC 103C074C
Copy CRC 103C074C
Accurately ripped (confidence 2) [FC81AE1F]
Copy OK
Track 15
Filename C:\Jones Girls, The\1998 -- The Jones Girls + At Peace With Woman (Remastered UK Reissue)\15 I Just Love The Man.wav
Pre-gap length 0:00:02.48
Peak level 78.5 %
Track quality 100.0 %
Test CRC B9471038
Copy CRC B9471038
Accurately ripped (confidence 2) [69931EF8]
Copy OK
Track 16
Filename C:\Jones Girls, The\1998 -- The Jones Girls + At Peace With Woman (Remastered UK Reissue)\16 Back In The Day.wav
Pre-gap length 0:00:02.48
Peak level 78.5 %
Track quality 100.0 %
Test CRC 8CC018CB
Copy CRC 8CC018CB
Accurately ripped (confidence 2) [C2C1B4F1]
Copy OK
Track 17
Filename C:\Jones Girls, The\1998 -- The Jones Girls + At Peace With Woman (Remastered UK Reissue)\17 Eternally (Bonus Track).wav
Pre-gap length 0:00:02.47
Peak level 93.9 %
Track quality 99.9 %
Test CRC A2CEF128
Copy CRC A2CEF128
Accurately ripped (confidence 2) [033CB50B]
Copy OK
All tracks accurately ripped
No errors occurred
End of status report
 
Содержание индексной карты (.CUE)
REM GENRE R&B
REM DATE 1998
REM DISCID E611C811
REM COMMENT "ExactAudioCopy v0.99pb5"
PERFORMER "The Jones Girls"
TITLE "The Jones Girls / At Peace With Woman"
FILE "01. This Feeling's Killing Me.flac" WAVE
TRACK 01 AUDIO
TITLE "This Feeling's Killing Me"
PERFORMER "The Jones Girls"
INDEX 01 00:00:00
TRACK 02 AUDIO
TITLE "You Made Me Love You"
PERFORMER "The Jones Girls"
INDEX 00 03:31:30
FILE "02. You Made Me Love You.flac" WAVE
INDEX 01 00:00:00
TRACK 03 AUDIO
TITLE "Show Love Today"
PERFORMER "The Jones Girls"
INDEX 00 04:50:68
FILE "03. Show Love Today.flac" WAVE
INDEX 01 00:00:00
TRACK 04 AUDIO
TITLE "You Gonna Make Me Love Somebody Else"
PERFORMER "The Jones Girls"
INDEX 00 03:53:22
FILE "04. You Gonna Make Me Love Somebody Else.flac" WAVE
INDEX 01 00:00:00
TRACK 05 AUDIO
TITLE "Life Goes On"
PERFORMER "The Jones Girls"
INDEX 00 04:30:65
FILE "05. Life Goes On.flac" WAVE
INDEX 01 00:00:00
TRACK 06 AUDIO
TITLE "Who Can I Run To?"
PERFORMER "The Jones Girls"
INDEX 00 04:28:42
FILE "06. Who Can I Run To.flac" WAVE
INDEX 01 00:00:00
TRACK 07 AUDIO
TITLE "We're A Melody"
PERFORMER "The Jones Girls"
INDEX 00 03:24:15
FILE "07. We're A Melody.flac" WAVE
INDEX 01 00:00:00
TRACK 08 AUDIO
TITLE "I'm At Your Mercy"
PERFORMER "The Jones Girls"
INDEX 00 05:22:48
FILE "08. I'm At Your Mercy.flac" WAVE
INDEX 01 00:00:00
TRACK 09 AUDIO
TITLE "Children Of The Night"
PERFORMER "The Jones Girls"
INDEX 00 04:47:08
FILE "09. Children Of The Night.flac" WAVE
INDEX 01 00:00:00
TRACK 10 AUDIO
TITLE "Let's Celebrate (Sittin' On Top Of The World)"
PERFORMER "The Jones Girls"
INDEX 00 05:10:03
FILE "10. Let's Celebrate (Sittin' On Top Of The World).flac" WAVE
INDEX 01 00:00:00
TRACK 11 AUDIO
TITLE "Dance Turned Into A Romance"
PERFORMER "The Jones Girls"
INDEX 00 04:19:38
FILE "11. Dance Turned Into A Romance.flac" WAVE
INDEX 01 00:00:00
TRACK 12 AUDIO
TITLE "I Close My Eyes"
PERFORMER "The Jones Girls"
INDEX 00 04:28:50
FILE "12. I Close My Eyes.flac" WAVE
INDEX 01 00:00:00
TRACK 13 AUDIO
TITLE "At Peace With Woman"
PERFORMER "The Jones Girls"
INDEX 00 04:53:42
FILE "13. At Peace With Woman.flac" WAVE
INDEX 01 00:00:00
TRACK 14 AUDIO
TITLE "When I'm Gone"
PERFORMER "The Jones Girls"
INDEX 00 04:29:50
FILE "14. When I'm Gone.flac" WAVE
INDEX 01 00:00:00
TRACK 15 AUDIO
TITLE "I Just Love The Man"
PERFORMER "The Jones Girls"
INDEX 00 04:48:05
FILE "15. I Just Love The Man.flac" WAVE
INDEX 01 00:00:00
TRACK 16 AUDIO
TITLE "Back In The Day"
PERFORMER "The Jones Girls"
INDEX 00 04:41:27
FILE "16. Back In The Day.flac" WAVE
INDEX 01 00:00:00
TRACK 17 AUDIO
TITLE "Eternally (Bonus Track)"
PERFORMER "The Jones Girls"
INDEX 00 03:58:05
FILE "17. Eternally (Bonus Track).flac" WAVE
INDEX 01 00:00:00
 
CUETools log
[CUETools log; Date: 22.03.2015 21:08:51; Version: 2.0.9]
[CTDB TOCID: ByXOX7pNG0xVWm_y2VRmXOIopV0-] found.
[ CTDBID ] Status
[16e9782f] (1/1) Accurately ripped
[AccurateRip ID: 002ebdde-02546bf9-e611c811] found.
Track [ CRC ] Status
01 [b034333b] (3/5) Accurately ripped
02 [edb6246d] (3/5) Accurately ripped
03 [96cdaccd] (3/5) Accurately ripped
04 [bf3f78fa] (3/5) Accurately ripped
05 [8a26df01] (3/5) Accurately ripped
06 [583b3829] (3/5) Accurately ripped
07 [f9900540] (3/5) Accurately ripped
08 [262b21d2] (3/5) Accurately ripped
09 [636cf330] (3/5) Accurately ripped
10 [fa111116] (3/5) Accurately ripped
11 [3aa14d48] (3/5) Accurately ripped
12 [7a9c8e86] (3/5) Accurately ripped
13 [efeca864] (3/5) Accurately ripped
14 [fc81ae1f] (3/5) Accurately ripped
15 [69931ef8] (3/5) Accurately ripped
16 [c2c1b4f1] (3/5) Accurately ripped
17 [033cb50b] (3/5) Accurately ripped
Track Peak [ CRC32 ] [W/O NULL] [ LOG ]
-- 98,8 [8D5FDEC4] [6041809D]
01 98,8 [A6E9C8E9] [199E3C13] CRC32
02 98,8 [2E8CBCD8] [2EC8FAEA] CRC32
03 98,8 [2D44906E] [486ECED6] CRC32
04 98,8 [BEBA7973] [E27303BF] CRC32
05 98,8 [797015D7] [FDBE15E6] CRC32
06 98,6 [5D475814] [A8C9F63C] CRC32
07 93,6 [3ADE3230] [78D704A8] CRC32
08 98,8 [A7B2BABA] [6A1D0A97] CRC32
09 98,8 [C97E870E] [B1E6CBF8] CRC32
10 93,3 [A9DFBDB5] [B8A3BF2D] CRC32
11 93,3 [3325E47B] [05771736] CRC32
12 56,7 [8C7FB5E2] [28FCD2EF] CRC32
13 83,1 [EA38E45D] [0C2C4D14] CRC32
14 83,1 [103C074C] [20599794] CRC32
15 78,5 [B9471038] [5E38D408] CRC32
16 78,5 [8CC018CB] [504540EC] CRC32
17 93,9 [A2CEF128] [E2470E0E] CRC32
Приватный:
Нет (DHT включён)
Размер:
448.16 Мб (469,926,251 байт) » файлов: 24
Участники:
0 раздают, 0 качают (0 участников всего)
Внешние участники:
3 раздают, 1 качают (4 участников всего) [ Обновить ]
No seeders - write a personal message to user M0p94ok. Нет сидеров - пишите личное сообщение пользователю M0p94ok.
04:53
85
Нет комментариев. Ваш будет первым!