Поиск

(Funk, Soul, R&B) [CD] Stone Coal White - Stone Coal White - 2011, FLAC (tracks+.cue), lossless

(Funk, Soul, R&B) [CD] Stone Coal White - Stone Coal White - 2011, FLAC (tracks+.cue), lossless
Треклист:
Stone Coal White / Stone Coal White
Жанр: Funk, Soul, R&B
Носитель: CD
Год издания: 2011
Страна исполнителя (группы): US
Аудиокодек: FLAC (*.flac)
Тип рипа: tracks+.cue
Битрейт аудио: lossless
Продолжительность: 00:27:37
Источник (релизер): my CD
Наличие сканов в содержимом раздачи: нет
Треклист:
01. You Know
02. Stone Coal White
03. Hell Below
04. Peoples
05. Warm Up
06. Move Your Hand
07. Ain't No Sunshine
08. Free
 
Лог создания рипа
Exact Audio Copy V1.3 from 2. September 2016
EAC extraction logfile from 28. February 2017, 21:24
Stone Coal White / Stone Coal White
Used drive : Optiarc DVD RW AD-5280S Adapter: 1 ID: 0
Read mode : Secure
Utilize accurate stream : Yes
Defeat audio cache : Yes
Make use of C2 pointers : No
Read offset correction : 48
Overread into Lead-In and Lead-Out : No
Fill up missing offset samples with silence : Yes
Delete leading and trailing silent blocks : No
Null samples used in CRC calculations : Yes
Used interface : Native Win32 interface for Win NT & 2000
Gap handling : Appended to previous track
Used output format : User Defined Encoder
Selected bitrate : 768 kBit/s
Quality : High
Add ID3 tag : No
Command line compressor : C:\Program Files (x86)\Exact Audio Copy\Flac\flac.exe
Additional command line options : -6 -V -T "ARTIST=%artist%" -T "TITLE=%title%" -T "ALBUM=%albumtitle%" -T "DATE=%year%" -T "TRACKNUMBER=%tracknr%" -T "GENRE=%genre%" -T "COMMENT=%comment%" -T "BAND=%albuminterpret%" -T "ALBUMARTIST=%albuminterpret%" -T "COMPOSER=%composer%" %haslyrics%--tag-from-file=LYRICS="%lyricsfile%"%haslyrics% -T "DISCNUMBER=%cdnumber%" -T "TOTALDISCS=%totalcds%" -T "TOTALTRACKS=%numtracks%" %hascover%--picture="%coverfile%"%hascover% %source% -o %dest%
TOC of the extracted CD
Track | Start | Length | Start sector | End sector
---------------------------------------------------------
1 | 0:00.00 | 3:52.19 | 0 | 17418
2 | 3:52.19 | 2:42.00 | 17419 | 29568
3 | 6:34.19 | 4:32.41 | 29569 | 50009
4 | 11:06.60 | 2:56.66 | 50010 | 63275
5 | 14:03.51 | 4:31.01 | 63276 | 83601
6 | 18:34.52 | 2:54.16 | 83602 | 96667
7 | 21:28.68 | 3:08.09 | 96668 | 110776
8 | 24:37.02 | 3:00.20 | 110777 | 124296
Track 1
Filename C:\EAC Rips\Stone Coal White [early '70s, cali-tex, 2011] flac\01 - You Know.wav
Pre-gap length 0:00:02.00
Peak level 98.8 %
Extraction speed 2.3 X
Track quality 100.0 %
Test CRC 8A25397F
Copy CRC 8A25397F
Accurately ripped (confidence 5) [91250A06] (AR v2)
Copy OK
Track 2
Filename C:\EAC Rips\Stone Coal White [early '70s, cali-tex, 2011] flac\02 - Stone Coal White.wav
Pre-gap length 0:00:03.01
Peak level 98.8 %
Extraction speed 2.0 X
Track quality 99.9 %
Test CRC 1F7AC4C2
Copy CRC 1F7AC4C2
Accurately ripped (confidence 5) [78461D7A] (AR v2)
Copy OK
Track 3
Filename C:\EAC Rips\Stone Coal White [early '70s, cali-tex, 2011] flac\03 - Hell Below.wav
Pre-gap length 0:00:01.32
Peak level 98.8 %
Extraction speed 2.5 X
Track quality 99.9 %
Test CRC C00DD794
Copy CRC C00DD794
Accurately ripped (confidence 5) [DCFF5122] (AR v2)
Copy OK
Track 4
Filename C:\EAC Rips\Stone Coal White [early '70s, cali-tex, 2011] flac\04 - People's.wav
Pre-gap length 0:00:01.29
Peak level 98.8 %
Extraction speed 2.8 X
Track quality 100.0 %
Test CRC A9DB0F1C
Copy CRC A9DB0F1C
Accurately ripped (confidence 5) [A5EF51C0] (AR v2)
Copy OK
Track 5
Filename C:\EAC Rips\Stone Coal White [early '70s, cali-tex, 2011] flac\05 - Warm Up.wav
Pre-gap length 0:00:02.88
Peak level 98.8 %
Extraction speed 3.2 X
Track quality 100.0 %
Test CRC 10CEB81F
Copy CRC 10CEB81F
Accurately ripped (confidence 5) [C78373E5] (AR v2)
Copy OK
Track 6
Filename C:\EAC Rips\Stone Coal White [early '70s, cali-tex, 2011] flac\06 - Move Your Hand.wav
Pre-gap length 0:00:03.02
Peak level 98.8 %
Extraction speed 3.1 X
Track quality 100.0 %
Test CRC 115869DE
Copy CRC 115869DE
Accurately ripped (confidence 5) [49893A9E] (AR v2)
Copy OK
Track 7
Filename C:\EAC Rips\Stone Coal White [early '70s, cali-tex, 2011] flac\07 - Ain't No Sunshine.wav
Pre-gap length 0:00:02.89
Peak level 98.8 %
Extraction speed 3.4 X
Track quality 100.0 %
Test CRC 1954EA04
Copy CRC 1954EA04
Accurately ripped (confidence 5) [4CB687CE] (AR v2)
Copy OK
Track 8
Filename C:\EAC Rips\Stone Coal White [early '70s, cali-tex, 2011] flac\08 - Free.wav
Pre-gap length 0:00:02.26
Peak level 98.8 %
Extraction speed 3.0 X
Track quality 99.9 %
Test CRC EBF96B3F
Copy CRC EBF96B3F
Accurately ripped (confidence 5) [432579EB] (AR v2)
Copy OK
All tracks accurately ripped
No errors occurred
End of status report
==== Log checksum B5D408216F49046499872A2184D80A5816457646627E5AD09D1D1DF818B525A9 ====
 
Содержание индексной карты (.CUE)
REM GENRE Rock
REM DATE 2011
REM DISCID 6C067908
REM COMMENT "ExactAudioCopy v1.3"
PERFORMER "Stone Coal White"
TITLE "Stone Coal White"
REM COMPOSER ""
FILE "01 - You Know.wav" WAVE
TRACK 01 AUDIO
TITLE "You Know"
PERFORMER "Stone Coal White"
REM COMPOSER ""
INDEX 01 00:00:00
TRACK 02 AUDIO
TITLE "Stone Coal White"
PERFORMER "Stone Coal White"
REM COMPOSER ""
INDEX 00 03:49:18
FILE "02 - Stone Coal White.wav" WAVE
INDEX 01 00:00:00
TRACK 03 AUDIO
TITLE "Hell Below"
PERFORMER "Stone Coal White"
REM COMPOSER ""
INDEX 00 02:40:51
FILE "03 - Hell Below.wav" WAVE
INDEX 01 00:00:00
TRACK 04 AUDIO
TITLE "People's"
PERFORMER "Stone Coal White"
REM COMPOSER ""
INDEX 00 04:31:19
FILE "04 - People's.wav" WAVE
INDEX 01 00:00:00
TRACK 05 AUDIO
TITLE "Warm Up"
PERFORMER "Stone Coal White"
REM COMPOSER ""
INDEX 00 02:54:00
FILE "05 - Warm Up.wav" WAVE
INDEX 01 00:00:00
TRACK 06 AUDIO
TITLE "Move Your Hand"
PERFORMER "Stone Coal White"
REM COMPOSER ""
INDEX 00 04:27:74
FILE "06 - Move Your Hand.wav" WAVE
INDEX 01 00:00:00
TRACK 07 AUDIO
TITLE "Ain't No Sunshine"
PERFORMER "Stone Coal White"
REM COMPOSER ""
INDEX 00 02:51:24
FILE "07 - Ain't No Sunshine.wav" WAVE
INDEX 01 00:00:00
TRACK 08 AUDIO
TITLE "Free"
PERFORMER "Stone Coal White"
REM COMPOSER ""
INDEX 00 03:05:64
FILE "08 - Free.wav" WAVE
INDEX 01 00:00:00
Приватный:
Нет (DHT включён)
Размер:
151.59 Мб (158,957,804 байт) » файлов: 12
Участники:
0 раздают, 0 качают (0 участников всего)
Внешние участники:
1 раздают, 0 качают (1 участников всего) [ Обновить ]
No seeders - write a personal message to user M0p94ok. Нет сидеров - пишите личное сообщение пользователю M0p94ok.
13:08
51
Нет комментариев. Ваш будет первым!