Поиск

(Funk, Soul, R&B) [CD] Marvin Gaye - Marvin Gaye Early Classics - 1994, FLAC (tracks+.cue), lossless

(Funk, Soul, R&B) [CD] Marvin Gaye - Marvin Gaye Early Classics - 1994, FLAC (tracks+.cue), lossless
Треклист:
Marvin Gaye - Marvin Gaye Early Classics Жанр: Funk, Soul, R&B
Носитель: CD
Год издания: 1994
Издатель (лейбл): Spectrum Music/Motown
Номер по каталогу: 552118-2
Аудиокодек: FLAC (*.flac)
Тип рипа: tracks+.cue
Битрейт аудио: lossless
Продолжительность: 47:55
Rip by babalusi
Наличие сканов в содержимом раздачи: да
Треклист:
01. How Sweet It Is (To Be Loved By You) (2:59)
02. No Good Without You (2:44)
03. I'll Take Care Of You (2:48)
04. You've Been A Long Time Coming (2:13)
05. Lucky Lucky Me [Original 1965 Version] (2:51)
06. Little Darling I Need You (2:34)
07. Stubborn Kind Of Fellow (2:44)
08. Never Let You Go (Sha-Lu-Bop) (2:44)
09. I'm Yours, You're Mine (1:57)
10. Wherever I Lay My Hat (That's My Home) (2:12)
11. One Of These Days (3:01)
12. Got To Get My Hands On Some Lovin' (2:26)
13. She's Got To Be Real (2:53)
14. Can I Get A Witness (2:49)
15. Now That You've Won Me (2:41)
16. You're A Wonderful One (2:46)
17. Stepping Closer To Your Heart (2:43)
18. Need Somebody (2:51)
 
 
Лог создания рипа
Exact Audio Copy V1.1 from 23. June 2015
EAC extraction logfile from 8. November 2015, 17:44
Marvin Gaye / Marvin Gaye - Early Classics
Used drive : MATSHITADVD-RAM UJ-850S Adapter: 1 ID: 0
Read mode : Secure
Utilize accurate stream : Yes
Defeat audio cache : Yes
Make use of C2 pointers : No
Read offset correction : 102
Overread into Lead-In and Lead-Out : No
Fill up missing offset samples with silence : Yes
Delete leading and trailing silent blocks : No
Null samples used in CRC calculations : Yes
Used interface : Native Win32 interface for Win NT & 2000
Gap handling : Appended to previous track
Used output format : User Defined Encoder
Selected bitrate : 896 kBit/s
Quality : High
Add ID3 tag : No
Command line compressor : C:\Program Files\Exact Audio Copy\Flac\flac.exe
Additional command line options : -8 -V -T "ARTIST=%artist%" -T "TITLE=%title%" -T "ALBUM=%albumtitle%" -T "DATE=%year%" -T "TRACKNUMBER=%tracknr%" -T "TOTALTRACKS=%numtracks%" -T "GENRE=%genre%" -T "ALBUMARTIST=%albumartist%" -T "ALBUM ARTIST=%albumartist%" -T "COMMENT=EAC Secure Mode, Test & Copy, AccurateRip, FLAC -8" %source%
TOC of the extracted CD
Track | Start | Length | Start sector | End sector
---------------------------------------------------------
1 | 0:00.00 | 2:58.47 | 0 | 13396
2 | 2:58.47 | 2:43.45 | 13397 | 25666
3 | 5:42.17 | 2:47.40 | 25667 | 38231
4 | 8:29.57 | 2:12.60 | 38232 | 48191
5 | 10:42.42 | 2:51.00 | 48192 | 61016
6 | 13:33.42 | 2:34.10 | 61017 | 72576
7 | 16:07.52 | 2:44.28 | 72577 | 84904
8 | 18:52.05 | 2:44.27 | 84905 | 97231
9 | 21:36.32 | 1:57.00 | 97232 | 106006
10 | 23:33.32 | 2:11.60 | 106007 | 115891
11 | 25:45.17 | 3:01.00 | 115892 | 129466
12 | 28:46.17 | 2:25.58 | 129467 | 140399
13 | 31:12.00 | 2:53.17 | 140400 | 153391
14 | 34:05.17 | 2:48.53 | 153392 | 166044
15 | 36:53.70 | 2:40.72 | 166045 | 178116
16 | 39:34.67 | 2:45.53 | 178117 | 190544
17 | 42:20.45 | 2:43.32 | 190545 | 202801
18 | 45:04.02 | 2:51.15 | 202802 | 215641
Track 1
Filename C:\Documents and Settings\Mazzag Orsolya.COMPAL\Asztal\RR5\01 - How Sweet It Is (To Be Loved By You).wav
Pre-gap length 0:00:02.00
Peak level 98.5 %
Extraction speed 1.1 X
Track quality 99.9 %
Test CRC 8FB726EB
Copy CRC 8FB726EB
Accurately ripped (confidence 4) [43FA4439] (AR v2)
Copy OK
Track 2
Filename C:\Documents and Settings\Mazzag Orsolya.COMPAL\Asztal\RR5\02 - No Good Without You.wav
Pre-gap length 0:00:00.25
Peak level 98.3 %
Extraction speed 1.4 X
Track quality 100.0 %
Test CRC 0660F118
Copy CRC 0660F118
Accurately ripped (confidence 4) [A51F7E42] (AR v2)
Copy OK
Track 3
Filename C:\Documents and Settings\Mazzag Orsolya.COMPAL\Asztal\RR5\03 - I'll Take Care Of You.wav
Pre-gap length 0:00:02.02
Peak level 97.1 %
Extraction speed 1.5 X
Track quality 100.0 %
Test CRC A8A27786
Copy CRC A8A27786
Accurately ripped (confidence 4) [02AD91A1] (AR v2)
Copy OK
Track 4
Filename C:\Documents and Settings\Mazzag Orsolya.COMPAL\Asztal\RR5\04 - You've Been A Long Time Coming.wav
Pre-gap length 0:00:00.52
Peak level 98.0 %
Extraction speed 1.3 X
Track quality 99.9 %
Test CRC 0D4247BB
Copy CRC 0D4247BB
Accurately ripped (confidence 5) [1686E77F] (AR v2)
Copy OK
Track 5
Filename C:\Documents and Settings\Mazzag Orsolya.COMPAL\Asztal\RR5\05 - Lucky Lucky Me [Original 1965 Version].wav
Pre-gap length 0:00:01.25
Peak level 98.0 %
Extraction speed 1.4 X
Track quality 99.9 %
Test CRC B9AFA83E
Copy CRC B9AFA83E
Accurately ripped (confidence 4) [E99C3069] (AR v2)
Copy OK
Track 6
Filename C:\Documents and Settings\Mazzag Orsolya.COMPAL\Asztal\RR5\06 - Little Darling I Need You.wav
Pre-gap length 0:00:01.50
Peak level 98.0 %
Extraction speed 1.7 X
Track quality 100.0 %
Test CRC E1F1D4D2
Copy CRC E1F1D4D2
Accurately ripped (confidence 4) [5473C90F] (AR v2)
Copy OK
Track 7
Filename C:\Documents and Settings\Mazzag Orsolya.COMPAL\Asztal\RR5\07 - Stubborn Kind Of Fellow.wav
Pre-gap length 0:00:01.21
Peak level 99.2 %
Extraction speed 1.9 X
Track quality 100.0 %
Test CRC 90CB9FC8
Copy CRC 90CB9FC8
Accurately ripped (confidence 4) [6771F461] (AR v2)
Copy OK
Track 8
Filename C:\Documents and Settings\Mazzag Orsolya.COMPAL\Asztal\RR5\08 - Never Let You Go (Sha-Lu-Bop).wav
Pre-gap length 0:00:01.52
Peak level 98.0 %
Extraction speed 1.6 X
Track quality 99.9 %
Test CRC D9DC2566
Copy CRC D9DC2566
Accurately ripped (confidence 4) [1A946B3D] (AR v2)
Copy OK
Track 9
Filename C:\Documents and Settings\Mazzag Orsolya.COMPAL\Asztal\RR5\09 - I'm Yours, You're Mine.wav
Pre-gap length 0:01:20.30
Peak level 98.0 %
Extraction speed 1.8 X
Track quality 100.0 %
Test CRC EF47D745
Copy CRC EF47D745
Accurately ripped (confidence 4) [85B47BE1] (AR v2)
Copy OK
Track 10
Filename C:\Documents and Settings\Mazzag Orsolya.COMPAL\Asztal\RR5\10 - Wherever I Lay My Hat (That's My Home).wav
Pre-gap length 0:00:03.55
Peak level 98.0 %
Extraction speed 1.6 X
Track quality 99.9 %
Test CRC FA7C9CAE
Copy CRC FA7C9CAE
Accurately ripped (confidence 4) [FDE83E4A] (AR v2)
Copy OK
Track 11
Filename C:\Documents and Settings\Mazzag Orsolya.COMPAL\Asztal\RR5\11 - One Of These Days.wav
Pre-gap length 0:00:01.45
Peak level 98.8 %
Extraction speed 2.1 X
Track quality 100.0 %
Test CRC 52301F01
Copy CRC 52301F01
Accurately ripped (confidence 4) [79B75D68] (AR v2)
Copy OK
Track 12
Filename C:\Documents and Settings\Mazzag Orsolya.COMPAL\Asztal\RR5\12 - Got To Get My Hands On Some Lovin'.wav
Pre-gap length 0:00:02.04
Peak level 98.0 %
Extraction speed 1.7 X
Track quality 99.9 %
Test CRC FB5D1038
Copy CRC FB5D1038
Accurately ripped (confidence 4) [7EC27BC7] (AR v2)
Copy OK
Track 13
Filename C:\Documents and Settings\Mazzag Orsolya.COMPAL\Asztal\RR5\13 - She's Got To Be Real.wav
Peak level 88.5 %
Extraction speed 2.2 X
Track quality 100.0 %
Test CRC 3951AB5D
Copy CRC 3951AB5D
Accurately ripped (confidence 4) [0D17D38F] (AR v2)
Copy OK
Track 14
Filename C:\Documents and Settings\Mazzag Orsolya.COMPAL\Asztal\RR5\14 - Can I Get A Witness.wav
Pre-gap length 0:00:01.53
Peak level 99.3 %
Extraction speed 2.3 X
Track quality 100.0 %
Test CRC 4A43AE25
Copy CRC 4A43AE25
Accurately ripped (confidence 5) [195E825C] (AR v2)
Copy OK
Track 15
Filename C:\Documents and Settings\Mazzag Orsolya.COMPAL\Asztal\RR5\15 - Now That You've Won Me.wav
Pre-gap length 0:01:22.35
Peak level 98.0 %
Extraction speed 2.3 X
Track quality 100.0 %
Test CRC 67FA9189
Copy CRC 67FA9189
Accurately ripped (confidence 4) [0CE280AC] (AR v2)
Copy OK
Track 16
Filename C:\Documents and Settings\Mazzag Orsolya.COMPAL\Asztal\RR5\16 - You're A Wonderful One.wav
Pre-gap length 0:00:02.20
Peak level 98.4 %
Extraction speed 2.4 X
Track quality 100.0 %
Test CRC 67528634
Copy CRC 67528634
Accurately ripped (confidence 5) [3BF85DAE] (AR v2)
Copy OK
Track 17
Filename C:\Documents and Settings\Mazzag Orsolya.COMPAL\Asztal\RR5\17 - Stepping Closer To Your Heart.wav
Pre-gap length 0:00:01.41
Peak level 98.3 %
Extraction speed 2.4 X
Track quality 100.0 %
Test CRC 258E8AFE
Copy CRC 258E8AFE
Accurately ripped (confidence 4) [017081C4] (AR v2)
Copy OK
Track 18
Filename C:\Documents and Settings\Mazzag Orsolya.COMPAL\Asztal\RR5\18 - Need Somebody.wav
Pre-gap length 0:00:02.18
Peak level 98.2 %
Extraction speed 2.6 X
Track quality 100.0 %
Test CRC 8A57E367
Copy CRC 8A57E367
Accurately ripped (confidence 5) [4CADC498] (AR v2)
Copy OK
All tracks accurately ripped
No errors occurred
End of status report
---- CUETools DB Plugin V2.1.6
[CTDB TOCID: GzZ9lB0R9iyQ1LQ7en4x2LggWjE-] database access error: A folyamat nem éri el a következő fájlt, mert azt egy másik folyamat használja: „C:\Documents and Settings\Mazzag Orsolya.COMPAL\Local Settings\Temp\_4wkvrzh.dll”.
==== Log checksum BE14781FFE97E6AF748A3AF1A32646DB4D999E2A0CE2059B0564D4391F07A9AA ====
 
Содержание индексной карты (.CUE)
REM GENRE Motown
REM DATE 1996
REM DISCID F50B3B12
REM COMMENT "ExactAudioCopy v1.1"
PERFORMER "Marvin Gaye"
TITLE "Marvin Gaye - Early Classics"
FILE "01 - How Sweet It Is (To Be Loved By You).wav" WAVE
TRACK 01 AUDIO
TITLE "How Sweet It Is (To Be Loved By You)"
PERFORMER "Marvin Gaye"
INDEX 01 00:00:00
TRACK 02 AUDIO
TITLE "No Good Without You"
PERFORMER "Marvin Gaye"
INDEX 00 02:58:22
FILE "02 - No Good Without You.wav" WAVE
INDEX 01 00:00:00
TRACK 03 AUDIO
TITLE "I'll Take Care Of You"
PERFORMER "Marvin Gaye"
INDEX 00 02:41:43
FILE "03 - I'll Take Care Of You.wav" WAVE
INDEX 01 00:00:00
TRACK 04 AUDIO
TITLE "You've Been A Long Time Coming"
PERFORMER "Marvin Gaye"
INDEX 00 02:46:63
FILE "04 - You've Been A Long Time Coming.wav" WAVE
INDEX 01 00:00:00
TRACK 05 AUDIO
TITLE "Lucky Lucky Me [Original 1965 Version]"
PERFORMER "Marvin Gaye"
INDEX 00 02:11:35
FILE "05 - Lucky Lucky Me [Original 1965 Version].wav" WAVE
INDEX 01 00:00:00
TRACK 06 AUDIO
TITLE "Little Darling I Need You"
PERFORMER "Marvin Gaye"
INDEX 00 02:49:25
FILE "06 - Little Darling I Need You.wav" WAVE
INDEX 01 00:00:00
TRACK 07 AUDIO
TITLE "Stubborn Kind Of Fellow"
PERFORMER "Marvin Gaye"
INDEX 00 02:32:64
FILE "07 - Stubborn Kind Of Fellow.wav" WAVE
INDEX 01 00:00:00
TRACK 08 AUDIO
TITLE "Never Let You Go (Sha-Lu-Bop)"
PERFORMER "Marvin Gaye"
INDEX 00 02:42:51
FILE "08 - Never Let You Go (Sha-Lu-Bop).wav" WAVE
INDEX 01 00:00:00
TRACK 09 AUDIO
TITLE "I'm Yours, You're Mine"
PERFORMER "Marvin Gaye"
INDEX 00 01:23:72
FILE "09 - I'm Yours, You're Mine.wav" WAVE
INDEX 01 00:00:00
TRACK 10 AUDIO
TITLE "Wherever I Lay My Hat (That's My Home)"
PERFORMER "Marvin Gaye"
INDEX 00 01:53:20
FILE "10 - Wherever I Lay My Hat (That's My Home).wav" WAVE
INDEX 01 00:00:00
TRACK 11 AUDIO
TITLE "One Of These Days"
PERFORMER "Marvin Gaye"
INDEX 00 02:10:15
FILE "11 - One Of These Days.wav" WAVE
INDEX 01 00:00:00
TRACK 12 AUDIO
TITLE "Got To Get My Hands On Some Lovin'"
PERFORMER "Marvin Gaye"
INDEX 00 02:58:71
FILE "12 - Got To Get My Hands On Some Lovin'.wav" WAVE
INDEX 01 00:00:00
FILE "13 - She's Got To Be Real.wav" WAVE
TRACK 13 AUDIO
TITLE "She's Got To Be Real"
PERFORMER "Marvin Gaye"
INDEX 01 00:00:00
TRACK 14 AUDIO
TITLE "Can I Get A Witness"
PERFORMER "Marvin Gaye"
INDEX 00 02:51:39
FILE "14 - Can I Get A Witness.wav" WAVE
INDEX 01 00:00:00
TRACK 15 AUDIO
TITLE "Now That You've Won Me"
PERFORMER "Marvin Gaye"
INDEX 00 01:26:18
FILE "15 - Now That You've Won Me.wav" WAVE
INDEX 01 00:00:00
TRACK 16 AUDIO
TITLE "You're A Wonderful One"
PERFORMER "Marvin Gaye"
INDEX 00 02:38:52
FILE "16 - You're A Wonderful One.wav" WAVE
INDEX 01 00:00:00
TRACK 17 AUDIO
TITLE "Stepping Closer To Your Heart"
PERFORMER "Marvin Gaye"
INDEX 00 02:44:12
FILE "17 - Stepping Closer To Your Heart.wav" WAVE
INDEX 01 00:00:00
TRACK 18 AUDIO
TITLE "Need Somebody"
PERFORMER "Marvin Gaye"
INDEX 00 02:41:14
FILE "18 - Need Somebody.wav" WAVE
INDEX 01 00:00:00
Приватный:
Нет (DHT включён)
Размер:
325.08 Мб (340,867,899 байт) » файлов: 28
Участники:
0 раздают, 0 качают (0 участников всего)
Внешние участники:
3 раздают, 1 качают (4 участников всего) [ Обновить ]
Есть вопросы - пишите личное сообщение пользователю M0p94ok.
08:54
74
Нет комментариев. Ваш будет первым!