Поиск

(Funk, Soul, R&B) [CD] Jean Knight - Mr. Big Stuff (1971) - 1990, FLAC (image+.cue), lossless

(Funk, Soul, R&B) [CD] Jean Knight - Mr. Big Stuff (1971) - 1990, FLAC (image+.cue), lossless
Треклист:
Jean Knight - Mr. Big Stuff (1971) Жанр: Funk, Soul, R&B
Носитель: CD
Страна-производитель диска: USA
Год издания: 1990
Издатель (лейбл): Stax Records
Номер по каталогу: SCD-8554-2
Аудиокодек: FLAC (*.flac)
Тип рипа: image+.cue
Битрейт аудио: lossless
Продолжительность: 49:38
Rip by BlondStyle
Наличие сканов в содержимом раздачи: да
Треклист:
01. Mr. Big Stuff (2:48)
02. A Little Bit Of Something (Is Better Than All Of Nothing) (3:22)
03. Don't Talk About Jody (2:46)
04. Think It Over (4:52)
05. Take Him (You Can Have My Man) (2:34)
06. You City Slicker (2:55)
07. Why I Keep Living These Memories (2:55)
08. Call Me Your Fool If You Want To (3:07)
09. One-Way Ticket To Nowhere (It's The End Of The Ride) (4:22)
10. Your Six-Bit Change (2:39)
Bonus Tracks:
11. Do Me (Bonus Track) (2:53)
12. Helping Man (Bonus Track) (2:56)
13. Carry On (Bonus Track) (2:57)
14. Save The Last Kiss For Me (Bonus Track) (3:27)
15. Pick Up The Pieces (Bonus Track) (2:34)
16. You Think You're Hot Stuff (Bonus Track) (2:29)
Personnel:
Jean Knight - vo
Wardell Quezergue - p, org
Jerry Puckett - g
William Laverne Robbins - b
James Carey Stroud - d, perc
 
 
Лог создания рипа
Exact Audio Copy V1.0 beta 3 from 29. August 2011
EAC extraction logfile from 31. July 2016, 15:22
Jean Knight / Mr. Big Stuff
Used drive : PIONEER BD-RW BDR-208D Adapter: 1 ID: 0
Read mode : Secure
Utilize accurate stream : Yes
Defeat audio cache : Yes
Make use of C2 pointers : No
Read offset correction : 667
Overread into Lead-In and Lead-Out : No
Fill up missing offset samples with silence : Yes
Delete leading and trailing silent blocks : No
Null samples used in CRC calculations : Yes
Used interface : Native Win32 interface for Win NT & 2000
Used output format : Internal WAV Routines
Sample format : 44.100 Hz; 16 Bit; Stereo
TOC of the extracted CD
Track | Start | Length | Start sector | End sector
---------------------------------------------------------
1 | 0:00.00 | 2:47.62 | 0 | 12586
2 | 2:47.62 | 3:22.10 | 12587 | 27746
3 | 6:09.72 | 2:46.25 | 27747 | 40221
4 | 8:56.22 | 4:51.53 | 40222 | 62099
5 | 13:48.00 | 2:33.55 | 62100 | 73629
6 | 16:21.55 | 2:55.22 | 73630 | 86776
7 | 19:17.02 | 2:55.28 | 86777 | 99929
8 | 22:12.30 | 3:07.37 | 99930 | 113991
9 | 25:19.67 | 4:22.35 | 113992 | 133676
10 | 29:42.27 | 2:38.73 | 133677 | 145599
11 | 32:21.25 | 2:52.67 | 145600 | 158566
12 | 35:14.17 | 2:56.05 | 158567 | 171771
13 | 38:10.22 | 2:56.55 | 171772 | 185026
14 | 41:07.02 | 3:26.73 | 185027 | 200549
15 | 44:34.00 | 2:34.37 | 200550 | 212136
16 | 47:08.37 | 2:29.23 | 212137 | 223334
Range status and errors
Selected range
Filename D:\BlondStyle\Jean Knight - Mr. Big Stuff.wav
Peak level 100.0 %
Extraction speed 4.2 X
Range quality 100.0 %
Test CRC E9B0447C
Copy CRC E9B0447C
Copy OK
No errors occurred
AccurateRip summary
Track 1 accurately ripped (confidence 2) [5D106549] (AR v1)
Track 2 accurately ripped (confidence 2) [0AA36D8F] (AR v1)
Track 3 accurately ripped (confidence 2) [5A971AC4] (AR v1)
Track 4 accurately ripped (confidence 1) [C477A588] (AR v2)
Track 5 accurately ripped (confidence 2) [EBF862BF] (AR v1)
Track 6 accurately ripped (confidence 2) [EB4C1C6B] (AR v1)
Track 7 accurately ripped (confidence 2) [00850E29] (AR v1)
Track 8 accurately ripped (confidence 2) [28628508] (AR v1)
Track 9 accurately ripped (confidence 2) [118001F4] (AR v1)
Track 10 accurately ripped (confidence 2) [41966766] (AR v1)
Track 11 accurately ripped (confidence 2) [0C4BB84D] (AR v1)
Track 12 accurately ripped (confidence 2) [04B8C4CA] (AR v1)
Track 13 accurately ripped (confidence 2) [B7DDBAFD] (AR v1)
Track 14 accurately ripped (confidence 2) [CD5E8C99] (AR v1)
Track 15 accurately ripped (confidence 2) [F4E00B9A] (AR v1)
Track 16 accurately ripped (confidence 2) [676DAB91] (AR v1)
All tracks accurately ripped
End of status report
---- CUETools DB Plugin V2.1.3
[CTDB TOCID: 97.14gM7x_Zak25h.IlZKsTWo4U-] found, Submit result: 97.14gM7x_Zak25h.IlZKsTWo4U- has been confirmed
[eb13c782] (2/2) Accurately ripped
==== Log checksum CA091B09DD2AD8473AF197F8648812D6B1699E2EE6F2C343CBF01D47B80FF886 ====
 
Содержание индексной карты (.CUE)
REM GENRE "R&B, Soul, Southern Soul"
REM DATE 1990
REM DISCID E50BA110
REM COMMENT "ExactAudioCopy v1.0b3"
PERFORMER "Jean Knight"
TITLE "Mr. Big Stuff"
FILE "Jean Knight - Mr. Big Stuff.flac" WAVE
TRACK 01 AUDIO
TITLE "Mr. Big Stuff"
PERFORMER "Jean Knight"
INDEX 01 00:00:00
TRACK 02 AUDIO
TITLE "A Little Bit Of Something (Is Better Than All Of Nothing)"
PERFORMER "Jean Knight"
INDEX 01 02:47:62
TRACK 03 AUDIO
TITLE "Don't Talk About Jody"
PERFORMER "Jean Knight"
INDEX 00 06:06:19
INDEX 01 06:09:72
TRACK 04 AUDIO
TITLE "Think It Over"
PERFORMER "Jean Knight"
INDEX 00 08:53:12
INDEX 01 08:56:22
TRACK 05 AUDIO
TITLE "Take Him (You Can Have My Man)"
PERFORMER "Jean Knight"
INDEX 00 13:44:42
INDEX 01 13:48:00
TRACK 06 AUDIO
TITLE "You City Slicker"
PERFORMER "Jean Knight"
INDEX 00 16:18:67
INDEX 01 16:21:55
TRACK 07 AUDIO
TITLE "Why I Keep Living These Memories"
PERFORMER "Jean Knight"
INDEX 00 19:14:05
INDEX 01 19:17:02
TRACK 08 AUDIO
TITLE "Call Me Your Fool If You Want To"
PERFORMER "Jean Knight"
INDEX 00 22:09:45
INDEX 01 22:12:30
TRACK 09 AUDIO
TITLE "One-Way Ticket To Nowhere (It's The End Of The Ride)"
PERFORMER "Jean Knight"
INDEX 00 25:16:31
INDEX 01 25:19:67
TRACK 10 AUDIO
TITLE "Your Six-Bit Change"
PERFORMER "Jean Knight"
INDEX 00 29:38:65
INDEX 01 29:42:27
TRACK 11 AUDIO
TITLE "Do Me (Bonus Track)"
PERFORMER "Jean Knight"
INDEX 00 32:18:02
INDEX 01 32:21:25
TRACK 12 AUDIO
TITLE "Helping Man (Bonus Track)"
PERFORMER "Jean Knight"
INDEX 00 35:11:17
INDEX 01 35:14:17
TRACK 13 AUDIO
TITLE "Carry On (Bonus Track)"
PERFORMER "Jean Knight"
INDEX 00 38:06:70
INDEX 01 38:10:22
TRACK 14 AUDIO
TITLE "Save The Last Kiss For Me (Bonus Track)"
PERFORMER "Jean Knight"
INDEX 00 41:03:61
INDEX 01 41:07:02
TRACK 15 AUDIO
TITLE "Pick Up The Pieces (Bonus Track)"
PERFORMER "Jean Knight"
INDEX 00 44:31:22
INDEX 01 44:34:00
TRACK 16 AUDIO
TITLE "You Think You're Hot Stuff (Bonus Track)"
PERFORMER "Jean Knight"
INDEX 00 47:05:67
INDEX 01 47:08:37
Приватный:
Нет (DHT включён)
Размер:
298.19 Мб (312,670,813 байт) » файлов: 11
Участники:
0 раздают, 0 качают (0 участников всего)
Внешние участники:
5 раздают, 1 качают (6 участников всего) [ Обновить ]
No seeders - write a personal message to user M0p94ok. Нет сидеров - пишите личное сообщение пользователю M0p94ok.
11:18
79
Нет комментариев. Ваш будет первым!