Поиск

(Funk, Soul, Pop) Terence Trent D'Arby - Wildcard - 2001, FLAC (tracks+.cue), lossless

(Funk, Soul, Pop) Terence Trent D'Arby - Wildcard - 2001, FLAC (tracks+.cue), lossless
Треклист:
Terence Trent D'Arby / Wildcard
Жанр: Funk, Soul, Pop
Страна-производитель диска (релиза): EU
Год издания: 2001
Издатель (лейбл): Sananda Records
Номер по каталогу: 016174-2
Страна исполнителя (группы): USA
Аудиокодек: FLAC (*.flac)
Тип рипа: tracks+.cue
Битрейт аудио: lossless
Продолжительность: 1:08:16.
Источник (релизер): clustert
Наличие сканов в содержимом раздачи: да
Треклист:
01. O Divina [0:04:17.15]
02. Designated fool [0:04:12.17]
03. My dark places [0:04:06.29]
04. The inner scream [0:04:24.15]
05. SRR-636* [0:03:44.04]
06. Drivin' me crazy [0:03:21.48]
07. Suga free [0:03:52.39]
08. Shalom [0:03:44.13]
09. Ev'rythang [0:03:32.25]
10. Love can you hear me? [0:03:19.35]
11. Sweetness [0:03:12.74]
12. Reflecting [0:03:27.02]
13. Be willing [0:03:36.61]
14. Goobbye Diane [0:04:37.51]
15. ... and they will never know [0:03:13.45]
16. Sayin' about you [0:03:49.13]
17. Shadows [0:04:18.32]
18. Benediction: Sugar Ray [0:03:27.06]
 
Лог создания рипа
Exact Audio Copy V1.0 beta 3 from 29. August 2011
Отчёт EAC об извлечении, выполненном 22. мая 2015, 22:35
D'Arby, Terence Trent / Wildcard
Дисковод: ASUS DRW-1814BLT Adapter: 4 ID: 0
Режим чтения : Достоверность
Использование точного потока : Да
Отключение кэша аудио : Да
Использование указателей C2 : Нет
Коррекция смещения при чтении : 6
Способность читать области Lead-in и Lead-out : Нет
Заполнение пропущенных сэмплов тишиной : Да
Удаление блоков с тишиной в начале и конце : Нет
При вычислениях CRC использовались нулевые сэмплы : Да
Интерфейс : Встроенный Win32-интерфейс для Win NT/2000
Обработка зазоров : Добавлено к предыдущему треку
Выходной формат : Пользовательский кодировщик
Выбранный битрейт : 128 kBit/s
Качество : Высокий
Добавление ID3-тега : Нет
Утилита сжатия : C:\Program Files\Exact Audio Copy\Flac\flac.exe
Дополнительные параметры : -V -8 -T "Genre=%genre%" -T "Artist=%artist%" -T "Title=%title%" -T "Album=%albumtitle%" -T "Date=%year%" -T "Tracknumber=%tracknr%" -T "Comment=EAC1.0b2 FLAC -8" %source%
TOC извлечённого CD
Трек | Старт | Длительность | Начальный сектор | Конечный сектор
---------------------------------------------------------------------
1 | 0:00.00 | 4:17.15 | 0 | 19289
2 | 4:17.15 | 4:12.17 | 19290 | 38206
3 | 8:29.32 | 4:06.29 | 38207 | 56685
4 | 12:35.61 | 4:24.15 | 56686 | 76500
5 | 17:00.01 | 3:44.04 | 76501 | 93304
6 | 20:44.05 | 3:21.48 | 93305 | 108427
7 | 24:05.53 | 3:52.39 | 108428 | 125866
8 | 27:58.17 | 3:44.13 | 125867 | 142679
9 | 31:42.30 | 3:32.25 | 142680 | 158604
10 | 35:14.55 | 3:19.35 | 158605 | 173564
11 | 38:34.15 | 3:12.74 | 173565 | 188038
12 | 41:47.14 | 3:27.02 | 188039 | 203565
13 | 45:14.16 | 3:36.61 | 203566 | 219826
14 | 48:51.02 | 4:37.51 | 219827 | 240652
15 | 53:28.53 | 3:13.45 | 240653 | 255172
16 | 56:42.23 | 3:49.13 | 255173 | 272360
17 | 60:31.36 | 4:18.32 | 272361 | 291742
18 | 64:49.68 | 3:27.06 | 291743 | 307273
Трек 1
Имя файла R:\Раздача 46\Terence Trent D'Arby's Sananda Maitreya's - 2001 - Wild Card\01 O Divina.wav
Длина предзазора 0:00:02.00
Пиковый уровень 98.8 %
Скорость извлечения 5.1 X
Качество трека 100.0 %
CRC теста 039E5BD5
CRC копии 039E5BD5
Точность не определена (достоверность 11) [E7041BED], AccurateRip вернул [D7F22926] (AR v2)
Копирование... OK
Трек 2
Имя файла R:\Раздача 46\Terence Trent D'Arby's Sananda Maitreya's - 2001 - Wild Card\02 Designated fool.wav
Пиковый уровень 98.8 %
Скорость извлечения 5.6 X
Качество трека 100.0 %
CRC теста 59D60ACE
CRC копии 59D60ACE
Точность не определена (достоверность 12) [0736A7F8], AccurateRip вернул [1A04BA89] (AR v2)
Копирование... OK
Трек 3
Имя файла R:\Раздача 46\Terence Trent D'Arby's Sananda Maitreya's - 2001 - Wild Card\03 My dark places.wav
Пиковый уровень 98.8 %
Скорость извлечения 6.1 X
Качество трека 100.0 %
CRC теста 0EFC3D32
CRC копии 0EFC3D32
Точность не определена (достоверность 12) [D6FB85BD], AccurateRip вернул [6D50B257] (AR v2)
Копирование... OK
Трек 4
Имя файла R:\Раздача 46\Terence Trent D'Arby's Sananda Maitreya's - 2001 - Wild Card\04 The inner scream.wav
Пиковый уровень 98.8 %
Скорость извлечения 6.6 X
Качество трека 100.0 %
CRC теста EE3A2734
CRC копии EE3A2734
Точность не определена (достоверность 12) [F7C33250], AccurateRip вернул [E558A923] (AR v2)
Копирование... OK
Трек 5
Имя файла R:\Раздача 46\Terence Trent D'Arby's Sananda Maitreya's - 2001 - Wild Card\05 SRR-636x.wav
Пиковый уровень 98.8 %
Скорость извлечения 6.8 X
Качество трека 100.0 %
CRC теста 523366CB
CRC копии 523366CB
Точность не определена (достоверность 12) [1971C061], AccurateRip вернул [897C4EA7] (AR v2)
Копирование... OK
Трек 6
Имя файла R:\Раздача 46\Terence Trent D'Arby's Sananda Maitreya's - 2001 - Wild Card\06 Drivin' me crazy.wav
Пиковый уровень 98.8 %
Скорость извлечения 7.0 X
Качество трека 100.0 %
CRC теста BF2AF15B
CRC копии BF2AF15B
Точность не определена (достоверность 12) [0CA34E28], AccurateRip вернул [32DD9C91] (AR v2)
Копирование... OK
Трек 7
Имя файла R:\Раздача 46\Terence Trent D'Arby's Sananda Maitreya's - 2001 - Wild Card\07 Suga free.wav
Пиковый уровень 98.8 %
Скорость извлечения 7.5 X
Качество трека 100.0 %
CRC теста 2A71293C
CRC копии 2A71293C
Точность не определена (достоверность 12) [3EE80F34], AccurateRip вернул [6E1A1D95] (AR v2)
Копирование... OK
Трек 8
Имя файла R:\Раздача 46\Terence Trent D'Arby's Sananda Maitreya's - 2001 - Wild Card\08 Shalom.wav
Длина предзазора 0:00:00.56
Пиковый уровень 98.8 %
Скорость извлечения 7.8 X
Качество трека 100.0 %
CRC теста EEFEE8C5
CRC копии EEFEE8C5
Точность не определена (достоверность 11) [ED999797], AccurateRip вернул [20F8FB3F] (AR v2)
Копирование... OK
Трек 9
Имя файла R:\Раздача 46\Terence Trent D'Arby's Sananda Maitreya's - 2001 - Wild Card\09 Ev'rythang.wav
Пиковый уровень 98.8 %
Скорость извлечения 8.0 X
Качество трека 100.0 %
CRC теста 4422BA54
CRC копии 4422BA54
Точность не определена (достоверность 12) [0D3048A4], AccurateRip вернул [463AFA8B] (AR v2)
Копирование... OK
Трек 10
Имя файла R:\Раздача 46\Terence Trent D'Arby's Sananda Maitreya's - 2001 - Wild Card\10 Love can you hear me.wav
Пиковый уровень 98.8 %
Скорость извлечения 8.1 X
Качество трека 100.0 %
CRC теста ED1676AD
CRC копии ED1676AD
Точность не определена (достоверность 12) [985E2B7F], AccurateRip вернул [10E30676] (AR v2)
Копирование... OK
Трек 11
Имя файла R:\Раздача 46\Terence Trent D'Arby's Sananda Maitreya's - 2001 - Wild Card\11 Sweetness.wav
Пиковый уровень 98.8 %
Скорость извлечения 8.3 X
Качество трека 100.0 %
CRC теста 32DE0581
CRC копии 32DE0581
Точность не определена (достоверность 12) [3E8FFBE1], AccurateRip вернул [04875869] (AR v2)
Копирование... OK
Трек 12
Имя файла R:\Раздача 46\Terence Trent D'Arby's Sananda Maitreya's - 2001 - Wild Card\12 Reflecting.wav
Пиковый уровень 98.8 %
Скорость извлечения 8.6 X
Качество трека 100.0 %
CRC теста F5897705
CRC копии F5897705
Точность не определена (достоверность 12) [95BBA4C0], AccurateRip вернул [BB753962] (AR v2)
Копирование... OK
Трек 13
Имя файла R:\Раздача 46\Terence Trent D'Arby's Sananda Maitreya's - 2001 - Wild Card\13 Be willing.wav
Длина предзазора 0:00:00.08
Пиковый уровень 98.8 %
Скорость извлечения 6.6 X
Качество трека 99.9 %
CRC теста 13D22FA9
CRC копии 13D22FA9
Точность не определена (достоверность 12) [C37F3F72], AccurateRip вернул [E1AF34D4] (AR v2)
Копирование... OK
Трек 14
Имя файла R:\Раздача 46\Terence Trent D'Arby's Sananda Maitreya's - 2001 - Wild Card\14 Goobbye Diane.wav
Пиковый уровень 98.8 %
Скорость извлечения 9.5 X
Качество трека 100.0 %
CRC теста DF143CCD
CRC копии DF143CCD
Точность не определена (достоверность 12) [21D53809], AccurateRip вернул [F3D64A12] (AR v2)
Копирование... OK
Трек 15
Имя файла R:\Раздача 46\Terence Trent D'Arby's Sananda Maitreya's - 2001 - Wild Card\15 ... and they will never know.wav
Пиковый уровень 98.8 %
Скорость извлечения 9.2 X
Качество трека 100.0 %
CRC теста 47FCC341
CRC копии 47FCC341
Точность не определена (достоверность 12) [D72CB827], AccurateRip вернул [BA6BA854] (AR v2)
Копирование... OK
Трек 16
Имя файла R:\Раздача 46\Terence Trent D'Arby's Sananda Maitreya's - 2001 - Wild Card\16 Sayin' about you.wav
Пиковый уровень 98.8 %
Скорость извлечения 9.7 X
Качество трека 100.0 %
CRC теста D963D9BF
CRC копии D963D9BF
Точность не определена (достоверность 12) [58C966D5], AccurateRip вернул [FD1CB9BD] (AR v2)
Копирование... OK
Трек 17
Имя файла R:\Раздача 46\Terence Trent D'Arby's Sananda Maitreya's - 2001 - Wild Card\17 Shadows.wav
Пиковый уровень 98.8 %
Скорость извлечения 10.1 X
Качество трека 100.0 %
CRC теста 4703FC41
CRC копии 4703FC41
Точность не определена (достоверность 12) [94633068], AccurateRip вернул [3B5302F0] (AR v2)
Копирование... OK
Трек 18
Имя файла R:\Раздача 46\Terence Trent D'Arby's Sananda Maitreya's - 2001 - Wild Card\18 Benediction- Sugar Ray.wav
Пиковый уровень 98.8 %
Скорость извлечения 9.9 X
Качество трека 100.0 %
CRC теста 948DC051
CRC копии 948DC051
Точность не определена (достоверность 12) [52D2C45F], AccurateRip вернул [4FDC76DC] (AR v2)
Копирование... OK
Ни один трек не прошёл проверки на точность
В вашей базе может быть иной вариант штамповки диска
Ошибок не произошло
Конец отчёта
==== Контрольная сумма отчёта 32C74B5EB83C380387DE6A5B38C2F2A14F80DBBEA2068857969444613E83C8F3 ====
 
Содержание индексной карты (.CUE)
REM GENRE Pop
REM DATE 2001
REM DISCID E7100012
REM COMMENT "ExactAudioCopy v1.0b3"
CATALOG 4019593830020
PERFORMER "D'Arby, Terence Trent"
TITLE "Wildcard"
FILE "01 O Divina.wav" WAVE
TRACK 01 AUDIO
TITLE "O Divina"
PERFORMER "D'Arby, Terence Trent"
ISRC <cUA20103553
INDEX 01 00:00:00
FILE "02 Designated fool.wav" WAVE
TRACK 02 AUDIO
TITLE "Designated fool"
PERFORMER "D'Arby, Terence Trent"
ISRC <cUA20103554
INDEX 01 00:00:00
FILE "03 My dark places.wav" WAVE
TRACK 03 AUDIO
TITLE "My dark places"
PERFORMER "D'Arby, Terence Trent"
ISRC <cUA20103555
INDEX 01 00:00:00
FILE "04 The inner scream.wav" WAVE
TRACK 04 AUDIO
TITLE "The inner scream"
PERFORMER "D'Arby, Terence Trent"
ISRC <cUA20103556
INDEX 01 00:00:00
FILE "05 SRR-636x.wav" WAVE
TRACK 05 AUDIO
TITLE "SRR-636*"
PERFORMER "D'Arby, Terence Trent"
ISRC <cUA20103557
INDEX 01 00:00:00
FILE "06 Drivin' me crazy.wav" WAVE
TRACK 06 AUDIO
TITLE "Drivin' me crazy"
PERFORMER "D'Arby, Terence Trent"
ISRC <cUA20103558
INDEX 01 00:00:00
FILE "07 Suga free.wav" WAVE
TRACK 07 AUDIO
TITLE "Suga free"
PERFORMER "D'Arby, Terence Trent"
ISRC <cUA20103559
INDEX 01 00:00:00
TRACK 08 AUDIO
TITLE "Shalom"
PERFORMER "D'Arby, Terence Trent"
ISRC <cUA20103560
INDEX 00 03:51:58
FILE "08 Shalom.wav" WAVE
INDEX 01 00:00:00
FILE "09 Ev'rythang.wav" WAVE
TRACK 09 AUDIO
TITLE "Ev'rythang"
PERFORMER "D'Arby, Terence Trent"
ISRC <cUA20103561
INDEX 01 00:00:00
FILE "10 Love can you hear me.wav" WAVE
TRACK 10 AUDIO
TITLE "Love can you hear me?"
PERFORMER "D'Arby, Terence Trent"
ISRC <cUA20103561
INDEX 01 00:00:00
FILE "11 Sweetness.wav" WAVE
TRACK 11 AUDIO
TITLE "Sweetness"
PERFORMER "D'Arby, Terence Trent"
ISRC <cUA20103563
INDEX 01 00:00:00
FILE "12 Reflecting.wav" WAVE
TRACK 12 AUDIO
TITLE "Reflecting"
PERFORMER "D'Arby, Terence Trent"
ISRC <cUA20103564
INDEX 01 00:00:00
TRACK 13 AUDIO
TITLE "Be willing"
PERFORMER "D'Arby, Terence Trent"
ISRC <cUA20103565
INDEX 00 03:26:69
FILE "13 Be willing.wav" WAVE
INDEX 01 00:00:00
FILE "14 Goobbye Diane.wav" WAVE
TRACK 14 AUDIO
TITLE "Goobbye Diane"
PERFORMER "D'Arby, Terence Trent"
ISRC <cUA20103566
INDEX 01 00:00:00
FILE "15 ... and they will never know.wav" WAVE
TRACK 15 AUDIO
TITLE "... and they will never know"
PERFORMER "D'Arby, Terence Trent"
ISRC <cUA20103567
INDEX 01 00:00:00
FILE "16 Sayin' about you.wav" WAVE
TRACK 16 AUDIO
TITLE "Sayin' about you"
PERFORMER "D'Arby, Terence Trent"
ISRC <cUA20103568
INDEX 01 00:00:00
FILE "17 Shadows.wav" WAVE
TRACK 17 AUDIO
TITLE "Shadows"
PERFORMER "D'Arby, Terence Trent"
ISRC <cUA20103568
INDEX 01 00:00:00
FILE "18 Benediction- Sugar Ray.wav" WAVE
TRACK 18 AUDIO
TITLE "Benediction: Sugar Ray"
PERFORMER "D'Arby, Terence Trent"
ISRC <cUA20103570
INDEX 01 00:00:00
Приватный:
Нет (DHT включён)
Размер:
459.44 Мб (481,758,837 байт) » файлов: 28
Участники:
0 раздают, 0 качают (0 участников всего)
Внешние участники:
1 раздают, 0 качают (1 участников всего) [ Обновить ]
No seeders - write personal message to user M0p94ok. Нет сидеров - пишите личное сообщение пользователю M0p94ok.
06:12
72
Нет комментариев. Ваш будет первым!