Поиск

(Funk, Soul, Pop, Soul) [CD] Diana Ross And The Supremes - Every Great #1 Hit - 1987, FLAC (image+.cue), lossless

(Funk, Soul, Pop, Soul) [CD] Diana Ross And The Supremes - Every Great #1 Hit - 1987, FLAC (image+.cue), lossless
Треклист:
Diana Ross And The Supremes / Every Great #1 Hit
Жанр: Funk, Soul, Pop, Soul
Носитель: CD
Страна-производитель диска (релиза): USA
Год издания: 1987
Издатель (лейбл): Motown Records
Номер по каталогу: MCD09038MD
Аудиокодек: FLAC (*.flac)
Тип рипа: image+.cue
Битрейт аудио: lossless
Продолжительность: 34:02
Источник (релизер): Boris1
Наличие сканов в содержимом раздачи: да
Треклист:
01. Where Did Our Love Go (2:35)
02. Baby Love (2:36)
03. Come See About Me (2:41)
04. Stop! In The Name Of Love (2:52)
05. Back In My Arms Again (2:57)
06. I Hear A Symphony (2:45)
07. You Can't Hurry Love (2:48 )
08. You Keep Me Hangin' On (2:48 )
09. Love Is Here And Now Your Gone (2:49)
10. The Happening (2:53)
11. Love Child (2:58 )
12. Someday We'll Be Together (3:20)
 
Лог создания рипа
Exact Audio Copy V1.0 beta 3 from 29. August 2011
EAC extraction logfile from 5. August 2016, 22:17
Diana Ross And The Supremes / "Every Great Number 1 Hit"
Used drive : PIONEER BD-RW BDR-TD03 Adapter: 0 ID: 1
Read mode : Secure
Utilize accurate stream : Yes
Defeat audio cache : Yes
Make use of C2 pointers : No
Read offset correction : 667
Overread into Lead-In and Lead-Out : No
Fill up missing offset samples with silence : Yes
Delete leading and trailing silent blocks : No
Null samples used in CRC calculations : Yes
Used interface : Native Win32 interface for Win NT & 2000
Used output format : User Defined Encoder
Selected bitrate : 768 kBit/s
Quality : High
Add ID3 tag : No
Command line compressor : C:\Program Files (x86)\Exact Audio Copy\FLAC\FLAC.EXE
Additional command line options : -6 -V -T "ARTIST=%artist%" -T "TITLE=%title%" -T "ALBUM=%albumtitle%" -T "DATE=%year%" -T "TRACKNUMBER=%tracknr%" -T "GENRE=%genre%" -T "COMMENT=%comment%" -T "BAND=%albuminterpret%" -T "ALBUMARTIST=%albuminterpret%" -T "COMPOSER=%composer%" %haslyrics%--tag-from-file=LYRICS="%lyricsfile%"%haslyrics% -T "DISCNUMBER=%cdnumber%" -T "TOTALDISCS=%totalcds%" -T "TOTALTRACKS=%numtracks%" %hascover%--picture="%coverfile%"%hascover% %source% -o %dest%
TOC of the extracted CD
Track | Start | Length | Start sector | End sector
---------------------------------------------------------
1 | 0:00.00 | 2:35.25 | 0 | 11649
2 | 2:35.25 | 2:36.65 | 11650 | 23414
3 | 5:12.15 | 2:41.65 | 23415 | 35554
4 | 7:54.05 | 2:52.70 | 35555 | 48524
5 | 10:47.00 | 2:57.00 | 48525 | 61799
6 | 13:44.00 | 2:45.25 | 61800 | 74199
7 | 16:29.25 | 2:48.30 | 74200 | 86829
8 | 19:17.55 | 2:48.17 | 86830 | 99446
9 | 22:05.72 | 2:49.43 | 99447 | 112164
10 | 24:55.40 | 2:53.55 | 112165 | 125194
11 | 27:49.20 | 2:58.15 | 125195 | 138559
12 | 30:47.35 | 3:20.02 | 138560 | 153561
Range status and errors
Selected range
Filename C:\Users\Deris\Desktop\kpnemo.eu\DiRosHit\Diana Ross And The Supremes - ''Every Great Number 1 Hit''.wav
Peak level 92.4 %
Extraction speed 4.3 X
Range quality 100.0 %
Test CRC 0F219510
Copy CRC 0F219510
Copy OK
No errors occurred
AccurateRip summary
Track 1 cannot be verified as accurate (confidence 9) [C93EC81B], AccurateRip returned [D4CA3A95] (AR v2)
Track 2 cannot be verified as accurate (confidence 9) [34274797], AccurateRip returned [D8AB0FD7] (AR v2)
Track 3 cannot be verified as accurate (confidence 9) [A3E0A2F6], AccurateRip returned [FCA48B1F] (AR v2)
Track 4 cannot be verified as accurate (confidence 9) [DE910151], AccurateRip returned [36A13734] (AR v2)
Track 5 cannot be verified as accurate (confidence 9) [ED8BD573], AccurateRip returned [8CB6F368] (AR v2)
Track 6 cannot be verified as accurate (confidence 9) [769F2A36], AccurateRip returned [47291AD2] (AR v2)
Track 7 cannot be verified as accurate (confidence 9) [9A810994], AccurateRip returned [DDB828F2] (AR v2)
Track 8 cannot be verified as accurate (confidence 9) [4384284C], AccurateRip returned [91A39B4D] (AR v2)
Track 9 cannot be verified as accurate (confidence 9) [E1F91F4F], AccurateRip returned [9A4925B3] (AR v2)
Track 10 cannot be verified as accurate (confidence 9) [7FB3CE6A], AccurateRip returned [BF9AEB0F] (AR v2)
Track 11 cannot be verified as accurate (confidence 9) [64C6B096], AccurateRip returned [A5AB9FDD] (AR v2)
Track 12 cannot be verified as accurate (confidence 9) [D699BF8B], AccurateRip returned [87BDF075] (AR v2)
No tracks could be verified as accurate
You may have a different pressing from the one(s) in the database
End of status report
---- CUETools DB Plugin V2.1.3
[CTDB TOCID: .t9NTbx.ww8l65w0SjqwFawL.YA-] found, Submit result: .t9NTbx.ww8l65w0SjqwFawL.YA- has been confirmed
[f68f6ad5] (12/12) Accurately ripped
==== Log checksum BA162DF845753E79AF7461A23787A5AA0869157B5616EAC80100A131FB25661E ====
 
Содержание индексной карты (.CUE)
REM GENRE Pop
REM DATE 1987
REM DISCID B507FF0C
REM COMMENT "ExactAudioCopy v1.0b3"
PERFORMER "Diana Ross And The Supremes"
TITLE "'Every Great Number 1 Hit'"
FILE "Diana Ross And The Supremes - ''Every Great Number 1 Hit''.flac" WAVE
TRACK 01 AUDIO
TITLE "Where Did Our Love Go"
PERFORMER "Diana Ross And The Supremes"
INDEX 01 00:00:00
TRACK 02 AUDIO
TITLE "Baby Love"
PERFORMER "Diana Ross And The Supremes"
INDEX 00 02:32:62
INDEX 01 02:35:25
TRACK 03 AUDIO
TITLE "Come See About Me"
PERFORMER "Diana Ross And The Supremes"
INDEX 00 05:09:17
INDEX 01 05:12:15
TRACK 04 AUDIO
TITLE "Stop! In The Name Of Love"
PERFORMER "Diana Ross And The Supremes"
INDEX 00 07:51:07
INDEX 01 07:54:05
TRACK 05 AUDIO
TITLE "Back In My Arms Again"
PERFORMER "Diana Ross And The Supremes"
INDEX 00 10:44:20
INDEX 01 10:47:00
TRACK 06 AUDIO
TITLE "I Hear A Symphony"
PERFORMER "Diana Ross And The Supremes"
INDEX 00 13:41:36
INDEX 01 13:44:00
TRACK 07 AUDIO
TITLE "You Can't Hurry Love"
PERFORMER "Diana Ross And The Supremes"
INDEX 00 16:25:72
INDEX 01 16:29:25
TRACK 08 AUDIO
TITLE "You Keep Me Hangin' On"
PERFORMER "Diana Ross And The Supremes"
INDEX 00 19:14:45
INDEX 01 19:17:55
TRACK 09 AUDIO
TITLE "Love Is Here And Now Your Gone"
PERFORMER "Diana Ross And The Supremes"
INDEX 00 22:02:61
INDEX 01 22:05:72
TRACK 10 AUDIO
TITLE "The Happening"
PERFORMER "Diana Ross And The Supremes"
INDEX 00 24:52:35
INDEX 01 24:55:40
TRACK 11 AUDIO
TITLE "Love Child"
PERFORMER "Diana Ross And The Supremes"
INDEX 00 27:45:57
INDEX 01 27:49:20
TRACK 12 AUDIO
TITLE "Someday We'll Be Together"
PERFORMER "Diana Ross And The Supremes"
INDEX 00 30:44:45
INDEX 01 30:47:35
 
DR Log
foobar2000 1.2.4 / Замер динамического диапазона (DR) 1.1.1
Дата отчёта: 2016-08-05 22:21:29
--------------------------------------------------------------------------------
Анализ: Diana Ross And The Supremes / 'Every Great Number 1 Hit'
--------------------------------------------------------------------------------
DR Пики RMS Продолжительность трека
--------------------------------------------------------------------------------
DR12 -2.13 дБ -15.46 дБ 2:35 01-Where Did Our Love Go
DR10 -2.16 дБ -14.69 дБ 2:37 02-Baby Love
DR13 -1.83 дБ -16.38 дБ 2:42 03-Come See About Me
DR11 -3.04 дБ -15.65 дБ 2:53 04-Stop! In The Name Of Love
DR11 -1.79 дБ -14.73 дБ 2:57 05-Back In My Arms Again
DR11 -2.07 дБ -16.04 дБ 2:45 06-I Hear A Symphony
DR11 -2.05 дБ -15.41 дБ 2:48 07-You Can't Hurry Love
DR11 -2.67 дБ -15.63 дБ 2:48 08-You Keep Me Hangin' On
DR11 -1.47 дБ -14.84 дБ 2:50 09-Love Is Here And Now Your Gone
DR12 -1.47 дБ -15.47 дБ 2:54 10-The Happening
DR13 -0.69 дБ -15.89 дБ 2:58 11-Love Child
DR13 -0.77 дБ -16.42 дБ 3:20 12-Someday We'll Be Together
--------------------------------------------------------------------------------
Количество треков: 12
Реальные значения DR: DR12
Частота: 44100 Гц
Каналов: 2
Разрядность: 16
Битрейт: 664 кбит/с
Кодек: FLAC
================================================================================
 
Об альбоме (сборнике)
The original hit single versions.
Приватный:
Нет (DHT включён)
Размер:
225.14 Мб (236,081,279 байт) » файлов: 9
Участники:
0 раздают, 0 качают (0 участников всего)
Внешние участники:
3 раздают, 1 качают (4 участников всего) [ Обновить ]
Есть вопросы - пишите личное сообщение пользователю M0p94ok.
11:22
63
Нет комментариев. Ваш будет первым!