Поиск

(Funk / Soul / Pop) [CD] Martha Reeves & The Vandellas - The Ultimate Collection - 1998, FLAC (tracks), lossless

(Funk / Soul / Pop) [CD] Martha Reeves & The Vandellas - The Ultimate Collection - 1998, FLAC (tracks), lossless
Треклист:
Martha Reeves & The Vandellas / The Ultimate Collection (1998)
Жанр: Funk/Soul/Pop
Носитель: CD
Страна-производитель диска (релиза): USA
Год издания: 1998
Издатель (лейбл): Motown
Номер по каталогу: 314530858-2
Страна исполнителя (группы): USA
Аудиокодек: FLAC (*.flac)
Тип рипа: tracks
Битрейт аудио: lossless
Продолжительность: 01:08:34
Источник (релизер): интернет
Наличие сканов в содержимом раздачи: да
Треклист:
01 Come and Get These Memories (1963)
02 (Love Is Like A) Heat Wave (1963)
03 Wild One (1964)
04 In My Lonely Room (1964)
05 Dancing in the Street (1964)
06 Quicksand (1963)
07 Love (Makes Me Do Foolish Things) (1965)
08 Live Wire (1964)
09 I'm Ready for Love (1966)
10 A Love Like Yours (Don't Come Knocking Everyday) (1963)
11 Third Finger, Left Hand (1967)
12 Nowhere to Run (1965)
13 I Can't Dance to That Music You're Playin' (1969)
14 Tear It on Down (1972)
15 Honey Chile (1967)
16 You've Been in Love Too Long (1965)
17 Motoring (1965)
18 I Promise to Wait My Love (1968)
19 Forget Me Not (1968)
20 Jimmy Mack (1967)
21 I Should Be Proud (1970)
22 Love Bug Leave My Heart Alone (1967)
23 Bless You (1971)
24 Darling, I Hum Our Song (1963)
25 My Baby Loves Me (1966)
 
Лог создания рипа
dBpoweramp Release 14 Digital Audio Extraction Log from Wednesday, January 01, 2014 02:50 PM
Drive & Settings
----------------
Ripping with drive 'K: [HL-DT-ST - DVD-ROM DH20N ]', Drive offset: 6, Overread Lead-in/out: No
AccurateRip: Active, Using C2: Yes, Cache: 1024 KB, FUA Cache Invalidate: No
Pass 1 Drive Speed: Max, Pass 2 Drive Speed: Max
Ultra:: Vary Drive Speed: No, Min Passes: 3, Max Passes: 6, Finish After Clean Passes: 2
Bad Sector Re-rip:: Drive Speed: Max, Maximum Re-reads: 34
Encoder: FLAC -compression-level-2
Extraction Log
--------------
Track 1: Ripped LBA 0 to 11027 (2:27) in 0:18. Filename: D:\$D4M$\Noise\Martha Reeves & The Vandellas - 1998 - The Ultimate Collection\01 - Martha Reeves & The Vandellas - Come and Get These Memories (1998).flac
AccurateRip: Accurate (confidence 8) [Pass 1]
CRC32: A18D92B8 AccurateRip CRC: CFFBE122 (NEW) [DiscID: 025-003c90ae-0446069e-7e101219-1]
Track 2: Ripped LBA 11027 to 23452 (2:45) in 0:08. Filename: D:\$D4M$\Noise\Martha Reeves & The Vandellas - 1998 - The Ultimate Collection\02 - Martha Reeves & The Vandellas - (Love Is Like A) Heat Wave (1998).flac
AccurateRip: Accurate (confidence 8) [Pass 1]
CRC32: 4101C7F7 AccurateRip CRC: 8F8E3F76 (NEW) [DiscID: 025-003c90ae-0446069e-7e101219-2]
Track 3: Ripped LBA 23452 to 35662 (2:42) in 0:07. Filename: D:\$D4M$\Noise\Martha Reeves & The Vandellas - 1998 - The Ultimate Collection\03 - Martha Reeves & The Vandellas - Wild One (1998).flac
AccurateRip: Accurate (confidence 7) [Pass 1]
CRC32: 2FE1E80A AccurateRip CRC: 11C8C1E5 (NEW) [DiscID: 025-003c90ae-0446069e-7e101219-3]
Track 4: Ripped LBA 35662 to 46932 (2:30) in 0:06. Filename: D:\$D4M$\Noise\Martha Reeves & The Vandellas - 1998 - The Ultimate Collection\04 - Martha Reeves & The Vandellas - In My Lonely Room (1998).flac
AccurateRip: Accurate (confidence 7) [Pass 1]
CRC32: 0BE0800A AccurateRip CRC: ADF17D58 (NEW) [DiscID: 025-003c90ae-0446069e-7e101219-4]
Track 5: Ripped LBA 46932 to 58955 (2:40) in 0:07. Filename: D:\$D4M$\Noise\Martha Reeves & The Vandellas - 1998 - The Ultimate Collection\05 - Martha Reeves & The Vandellas - Dancing in the Street (1998).flac
AccurateRip: Accurate (confidence 8) [Pass 1]
CRC32: 19E875B8 AccurateRip CRC: E5A69ADE (NEW) [DiscID: 025-003c90ae-0446069e-7e101219-5]
Track 6: Ripped LBA 58955 to 70815 (2:38) in 0:06. Filename: D:\$D4M$\Noise\Martha Reeves & The Vandellas - 1998 - The Ultimate Collection\06 - Martha Reeves & The Vandellas - Quicksand (1998).flac
AccurateRip: Accurate (confidence 7) [Pass 1]
CRC32: 1586C682 AccurateRip CRC: 084A6727 (NEW) [DiscID: 025-003c90ae-0446069e-7e101219-6]
Track 7: Ripped LBA 70815 to 84070 (2:56) in 0:07. Filename: D:\$D4M$\Noise\Martha Reeves & The Vandellas - 1998 - The Ultimate Collection\07 - Martha Reeves & The Vandellas - Love (Makes Me Do Foolish Things) (1998).flac
AccurateRip: Accurate (confidence 7) [Pass 1]
CRC32: 202262FC AccurateRip CRC: 63387F8E (NEW) [DiscID: 025-003c90ae-0446069e-7e101219-7]
Track 8: Ripped LBA 84070 to 96012 (2:39) in 0:06. Filename: D:\$D4M$\Noise\Martha Reeves & The Vandellas - 1998 - The Ultimate Collection\08 - Martha Reeves & The Vandellas - Live Wire (1998).flac
AccurateRip: Accurate (confidence 7) [Pass 1]
CRC32: 21AEBB97 AccurateRip CRC: 5F4A6852 (NEW) [DiscID: 025-003c90ae-0446069e-7e101219-8]
Track 9: Ripped LBA 96012 to 109117 (2:54) in 0:06. Filename: D:\$D4M$\Noise\Martha Reeves & The Vandellas - 1998 - The Ultimate Collection\09 - Martha Reeves & The Vandellas - I'm Ready for Love (1998).flac
AccurateRip: Accurate (confidence 8) [Pass 1]
CRC32: 60DA8589 AccurateRip CRC: 0160E6D0 (NEW) [DiscID: 025-003c90ae-0446069e-7e101219-9]
Track 10: Ripped LBA 109117 to 120352 (2:29) in 0:05. Filename: D:\$D4M$\Noise\Martha Reeves & The Vandellas - 1998 - The Ultimate Collection\10 - Martha Reeves & The Vandellas - A Love Like Yours (Don't Come Knocking Everyday) (1998).flac
AccurateRip: Accurate (confidence 7) [Pass 1]
CRC32: D732A1FB AccurateRip CRC: 7154D43B (NEW) [DiscID: 025-003c90ae-0446069e-7e101219-10]
Track 11: Ripped LBA 120352 to 132835 (2:46) in 0:05. Filename: D:\$D4M$\Noise\Martha Reeves & The Vandellas - 1998 - The Ultimate Collection\11 - Martha Reeves & The Vandellas - Third Finger, Left Hand (1998).flac
AccurateRip: Accurate (confidence 7) [Pass 1]
CRC32: EF8A61B2 AccurateRip CRC: 929A0ACC (NEW) [DiscID: 025-003c90ae-0446069e-7e101219-11]
Track 12: Ripped LBA 132835 to 145730 (2:51) in 0:05. Filename: D:\$D4M$\Noise\Martha Reeves & The Vandellas - 1998 - The Ultimate Collection\12 - Martha Reeves & The Vandellas - Nowhere to Run (1998).flac
AccurateRip: Accurate (confidence 7) [Pass 1]
CRC32: 2B77382C AccurateRip CRC: A6AC7C46 (NEW) [DiscID: 025-003c90ae-0446069e-7e101219-12]
Track 13: Ripped LBA 145730 to 157642 (2:38) in 0:05. Filename: D:\$D4M$\Noise\Martha Reeves & The Vandellas - 1998 - The Ultimate Collection\13 - Martha Reeves & The Vandellas - I Can't Dance to That Music You're Playin' (1998).flac
AccurateRip: Accurate (confidence 7) [Pass 1]
CRC32: 3FD488EA AccurateRip CRC: D516F041 (NEW) [DiscID: 025-003c90ae-0446069e-7e101219-13]
Track 14: Ripped LBA 157642 to 171212 (3:00) in 0:05. Filename: D:\$D4M$\Noise\Martha Reeves & The Vandellas - 1998 - The Ultimate Collection\14 - Martha Reeves & The Vandellas - Tear It on Down (1998).flac
AccurateRip: Accurate (confidence 7) [Pass 1]
CRC32: 9FDA9709 AccurateRip CRC: 52EBB03E (NEW) [DiscID: 025-003c90ae-0446069e-7e101219-14]
Track 15: Ripped LBA 171212 to 184462 (2:56) in 0:05. Filename: D:\$D4M$\Noise\Martha Reeves & The Vandellas - 1998 - The Ultimate Collection\15 - Martha Reeves & The Vandellas - Honey Chile (1998).flac
AccurateRip: Accurate (confidence 7) [Pass 1]
CRC32: 227C1C63 AccurateRip CRC: 0A28FAF2 (NEW) [DiscID: 025-003c90ae-0446069e-7e101219-15]
Track 16: Ripped LBA 184462 to 197800 (2:57) in 0:05. Filename: D:\$D4M$\Noise\Martha Reeves & The Vandellas - 1998 - The Ultimate Collection\16 - Martha Reeves & The Vandellas - You've Been in Love Too Long (1998).flac
AccurateRip: Accurate (confidence 7) [Pass 1]
CRC32: F2F0D310 AccurateRip CRC: A44E4296 (NEW) [DiscID: 025-003c90ae-0446069e-7e101219-16]
Track 17: Ripped LBA 197800 to 210242 (2:45) in 0:04. Filename: D:\$D4M$\Noise\Martha Reeves & The Vandellas - 1998 - The Ultimate Collection\17 - Martha Reeves & The Vandellas - Motoring (1998).flac
AccurateRip: Accurate (confidence 7) [Pass 1]
CRC32: AB0A5FDF AccurateRip CRC: FF7AA305 (NEW) [DiscID: 025-003c90ae-0446069e-7e101219-17]
Track 18: Ripped LBA 210242 to 219685 (2:05) in 0:03. Filename: D:\$D4M$\Noise\Martha Reeves & The Vandellas - 1998 - The Ultimate Collection\18 - Martha Reeves & The Vandellas - I Promise to Wait My Love (1998).flac
AccurateRip: Accurate (confidence 7) [Pass 1]
CRC32: AE76062E AccurateRip CRC: 252F275B (NEW) [DiscID: 025-003c90ae-0446069e-7e101219-18]
Track 19: Ripped LBA 219685 to 232980 (2:57) in 0:05. Filename: D:\$D4M$\Noise\Martha Reeves & The Vandellas - 1998 - The Ultimate Collection\19 - Martha Reeves & The Vandellas - Forget Me Not (1998).flac
AccurateRip: Accurate (confidence 7) [Pass 1]
CRC32: CF7B594C AccurateRip CRC: E3BDCB73 (NEW) [DiscID: 025-003c90ae-0446069e-7e101219-19]
Track 20: Ripped LBA 232980 to 245997 (2:53) in 0:04. Filename: D:\$D4M$\Noise\Martha Reeves & The Vandellas - 1998 - The Ultimate Collection\20 - Martha Reeves & The Vandellas - Jimmy Mack (1998).flac
AccurateRip: Accurate (confidence 8) [Pass 1]
CRC32: 2DEB163A AccurateRip CRC: 51B96AB8 (NEW) [DiscID: 025-003c90ae-0446069e-7e101219-20]
Track 21: Ripped LBA 245997 to 259190 (2:55) in 0:04. Filename: D:\$D4M$\Noise\Martha Reeves & The Vandellas - 1998 - The Ultimate Collection\21 - Martha Reeves & The Vandellas - I Should Be Proud (1998).flac
AccurateRip: Accurate (confidence 7) [Pass 1]
CRC32: E8DD404A AccurateRip CRC: C2C810BE (NEW) [DiscID: 025-003c90ae-0446069e-7e101219-21]
Track 22: Ripped LBA 259190 to 268992 (2:10) in 0:03. Filename: D:\$D4M$\Noise\Martha Reeves & The Vandellas - 1998 - The Ultimate Collection\22 - Martha Reeves & The Vandellas - Love Bug Leave My Heart Alone (1998).flac
AccurateRip: Accurate (confidence 7) [Pass 1]
CRC32: 64254CBF AccurateRip CRC: 653FEF50 (NEW) [DiscID: 025-003c90ae-0446069e-7e101219-22]
Track 23: Ripped LBA 268992 to 282865 (3:04) in 0:04. Filename: D:\$D4M$\Noise\Martha Reeves & The Vandellas - 1998 - The Ultimate Collection\23 - Martha Reeves & The Vandellas - Bless You (1998).flac
AccurateRip: Accurate (confidence 7) [Pass 1]
CRC32: FD8DC30C AccurateRip CRC: DF7830E8 (NEW) [DiscID: 025-003c90ae-0446069e-7e101219-23]
Track 24: Ripped LBA 282865 to 294592 (2:36) in 0:04. Filename: D:\$D4M$\Noise\Martha Reeves & The Vandellas - 1998 - The Ultimate Collection\24 - Martha Reeves & The Vandellas - Darling, I Hum Our Song (1998).flac
AccurateRip: Accurate (confidence 7) [Pass 1]
CRC32: BB674AAE AccurateRip CRC: 78AD5D35 (NEW) [DiscID: 025-003c90ae-0446069e-7e101219-24]
Track 25: Ripped LBA 294592 to 308580 (3:06) in 0:04. Filename: D:\$D4M$\Noise\Martha Reeves & The Vandellas - 1998 - The Ultimate Collection\25 - Martha Reeves & The Vandellas - My Baby Loves Me (1998).flac
AccurateRip: Accurate (confidence 7) [Pass 1]
CRC32: EAB3F358 AccurateRip CRC: 4B68AFE8 (NEW) [DiscID: 025-003c90ae-0446069e-7e101219-25]
--------------
25 Tracks Ripped Accurately
 
Лог проверки качества
AUDIOCHECKER v2.0 beta (build 457) - by Dester - opdester@freemail.hu
~~~~~~~~~~~~~~~~~~~~~~~~~~~~~~~~~~
Начато: вторник, 28. 04. 2015. - 23:36.57
Найдено файлов: 25
01 -===- D:\Torrentishe\Martha Reeves & The Vandellas - 1998 - The Ultimate Collection\1998 - The Ultimate Collection [Motown]\01 Come and Get These Memories (1963).flac
Извлечение успешно выполнено
Заключение: этот трек - CDDA с вероятностью 100%
Временный файл удалён.
02 -===- D:\Torrentishe\Martha Reeves & The Vandellas - 1998 - The Ultimate Collection\1998 - The Ultimate Collection [Motown]\02 (Love Is Like A) Heat Wave (1963).flac
Извлечение успешно выполнено
Заключение: этот трек - CDDA с вероятностью 100%
Временный файл удалён.
03 -===- D:\Torrentishe\Martha Reeves & The Vandellas - 1998 - The Ultimate Collection\1998 - The Ultimate Collection [Motown]\03 Wild One (1964).flac
Извлечение успешно выполнено
Заключение: этот трек - CDDA с вероятностью 100%
Временный файл удалён.
04 -===- D:\Torrentishe\Martha Reeves & The Vandellas - 1998 - The Ultimate Collection\1998 - The Ultimate Collection [Motown]\04 In My Lonely Room (1964).flac
Извлечение успешно выполнено
Заключение: этот трек - CDDA с вероятностью 100%
Временный файл удалён.
05 -===- D:\Torrentishe\Martha Reeves & The Vandellas - 1998 - The Ultimate Collection\1998 - The Ultimate Collection [Motown]\05 Dancing in the Street (1964).flac
Извлечение успешно выполнено
Заключение: этот трек - CDDA с вероятностью 100%
Временный файл удалён.
06 -===- D:\Torrentishe\Martha Reeves & The Vandellas - 1998 - The Ultimate Collection\1998 - The Ultimate Collection [Motown]\06 Quicksand (1963).flac
Извлечение успешно выполнено
Заключение: этот трек - CDDA с вероятностью 100%
Временный файл удалён.
07 -===- D:\Torrentishe\Martha Reeves & The Vandellas - 1998 - The Ultimate Collection\1998 - The Ultimate Collection [Motown]\07 Love (Makes Me Do Foolish Things) (1965).flac
Извлечение успешно выполнено
Заключение: этот трек - CDDA с вероятностью 100%
Временный файл удалён.
08 -===- D:\Torrentishe\Martha Reeves & The Vandellas - 1998 - The Ultimate Collection\1998 - The Ultimate Collection [Motown]\08 Live Wire (1964).flac
Извлечение успешно выполнено
Заключение: этот трек - CDDA с вероятностью 100%
Временный файл удалён.
09 -===- D:\Torrentishe\Martha Reeves & The Vandellas - 1998 - The Ultimate Collection\1998 - The Ultimate Collection [Motown]\09 I'm Ready for Love (1966).flac
Извлечение успешно выполнено
Заключение: этот трек - CDDA с вероятностью 100%
Временный файл удалён.
10 -===- D:\Torrentishe\Martha Reeves & The Vandellas - 1998 - The Ultimate Collection\1998 - The Ultimate Collection [Motown]\10 A Love Like Yours (Don't Come Knocking Everyday) (1963).flac
Извлечение успешно выполнено
Заключение: этот трек - CDDA с вероятностью 100%
Временный файл удалён.
11 -===- D:\Torrentishe\Martha Reeves & The Vandellas - 1998 - The Ultimate Collection\1998 - The Ultimate Collection [Motown]\11 Third Finger, Left Hand (1967).flac
Извлечение успешно выполнено
Заключение: этот трек - CDDA с вероятностью 100%
Временный файл удалён.
12 -===- D:\Torrentishe\Martha Reeves & The Vandellas - 1998 - The Ultimate Collection\1998 - The Ultimate Collection [Motown]\12 Nowhere to Run (1965).flac
Извлечение успешно выполнено
Заключение: этот трек - CDDA с вероятностью 100%
Временный файл удалён.
13 -===- D:\Torrentishe\Martha Reeves & The Vandellas - 1998 - The Ultimate Collection\1998 - The Ultimate Collection [Motown]\13 I Can't Dance to That Music You're Playin' (1969).flac
Извлечение успешно выполнено
Заключение: этот трек - CDDA с вероятностью 100%
Временный файл удалён.
14 -===- D:\Torrentishe\Martha Reeves & The Vandellas - 1998 - The Ultimate Collection\1998 - The Ultimate Collection [Motown]\14 Tear It on Down (1972).flac
Извлечение успешно выполнено
Заключение: этот трек - CDDA с вероятностью 100%
Временный файл удалён.
15 -===- D:\Torrentishe\Martha Reeves & The Vandellas - 1998 - The Ultimate Collection\1998 - The Ultimate Collection [Motown]\15 Honey Chile (1967).flac
Извлечение успешно выполнено
Заключение: этот трек - CDDA с вероятностью 100%
Временный файл удалён.
16 -===- D:\Torrentishe\Martha Reeves & The Vandellas - 1998 - The Ultimate Collection\1998 - The Ultimate Collection [Motown]\16 You've Been in Love Too Long (1965).flac
Извлечение успешно выполнено
Заключение: этот трек - CDDA с вероятностью 100%
Временный файл удалён.
17 -===- D:\Torrentishe\Martha Reeves & The Vandellas - 1998 - The Ultimate Collection\1998 - The Ultimate Collection [Motown]\17 Motoring (1965).flac
Извлечение успешно выполнено
Заключение: этот трек - CDDA с вероятностью 100%
Временный файл удалён.
18 -===- D:\Torrentishe\Martha Reeves & The Vandellas - 1998 - The Ultimate Collection\1998 - The Ultimate Collection [Motown]\18 I Promise to Wait My Love (1968).flac
Извлечение успешно выполнено
Заключение: этот трек - CDDA с вероятностью 100%
Временный файл удалён.
19 -===- D:\Torrentishe\Martha Reeves & The Vandellas - 1998 - The Ultimate Collection\1998 - The Ultimate Collection [Motown]\19 Forget Me Not (1968).flac
Извлечение успешно выполнено
Заключение: этот трек - CDDA с вероятностью 100%
Временный файл удалён.
20 -===- D:\Torrentishe\Martha Reeves & The Vandellas - 1998 - The Ultimate Collection\1998 - The Ultimate Collection [Motown]\20 Jimmy Mack (1967).flac
Извлечение успешно выполнено
Заключение: этот трек - CDDA с вероятностью 100%
Временный файл удалён.
21 -===- D:\Torrentishe\Martha Reeves & The Vandellas - 1998 - The Ultimate Collection\1998 - The Ultimate Collection [Motown]\21 I Should Be Proud (1970).flac
Извлечение успешно выполнено
Заключение: этот трек - CDDA с вероятностью 100%
Временный файл удалён.
22 -===- D:\Torrentishe\Martha Reeves & The Vandellas - 1998 - The Ultimate Collection\1998 - The Ultimate Collection [Motown]\22 Love Bug Leave My Heart Alone (1967).flac
Извлечение успешно выполнено
Заключение: этот трек - CDDA с вероятностью 100%
Временный файл удалён.
23 -===- D:\Torrentishe\Martha Reeves & The Vandellas - 1998 - The Ultimate Collection\1998 - The Ultimate Collection [Motown]\23 Bless You (1971).flac
Извлечение успешно выполнено
Заключение: этот трек - CDDA с вероятностью 100%
Временный файл удалён.
24 -===- D:\Torrentishe\Martha Reeves & The Vandellas - 1998 - The Ultimate Collection\1998 - The Ultimate Collection [Motown]\24 Darling, I Hum Our Song (1963).flac
Извлечение успешно выполнено
Заключение: этот трек - CDDA с вероятностью 42%
Временный файл удалён.
25 -===- D:\Torrentishe\Martha Reeves & The Vandellas - 1998 - The Ultimate Collection\1998 - The Ultimate Collection [Motown]\25 My Baby Loves Me (1966).flac
Извлечение успешно выполнено
Заключение: этот трек - CDDA с вероятностью 100%
Временный файл удалён.
Завершено: вторник, 28. 04. 2015. - 23:42.14 (Время операции: 0:05.16)
Приватный:
Нет (DHT включён)
Размер:
268.56 Мб (281,602,523 байт) » файлов: 36
Участники:
0 раздают, 0 качают (0 участников всего)
Внешние участники:
1 раздают, 0 качают (1 участников всего) [ Обновить ]
Есть вопросы - пишите личное сообщение пользователю M0p94ok.
05:50
61
Нет комментариев. Ваш будет первым!