Поиск

(Funk / Soul, Jazz, Free Funk, Descarga, Son, Mambo, Salsa, Latin Jazz, Merengue) DJ Format - Fania DJ Series - 2007, FLAC (tracks+.cue), lossless

(Funk / Soul, Jazz, Free Funk, Descarga, Son, Mambo, Salsa, Latin Jazz, Merengue) DJ Format - Fania DJ Series - 2007, FLAC (tracks+.cue), lossless
Треклист:
DJ Format - Fania DJ Series
Жанр: Funk / Soul, Jazz, Free Funk, Descarga, Son, Mambo, Salsa, Latin Jazz, Merengue
Год выпуска диска: 2007
Производитель диска: uk
Аудио кодек: FLAC
Тип рипа: tracks+.cue
Битрейт аудио: lossless
Продолжительность: 60m
Трэклист:
1 Louie Ramirez Ali Baba (3:01)
2 Ray Barretto Right On (1:44)
3 Jack Constanzo* & Gerry Woo Jive Samba (3:00)
4 Quetcy Alma* Deep (2:49)
5 Chollo Rivera & The Latin Soul Drivers Black & Blue (Negros Y Azules) (2:32)
6 Latinaires, The Creation (3:38)
7 Lebron Brothers Dance, Dance (1:19)
8 Jimmy Sabater Kool It (1:58)
9 Latinaires, The Society (2:02)
10 Ray Barretto New York Soul (2:19)
11 Johnny Rivera & The Tequila Brass Johnny On The Warpath (2:00)
12 Willie Bobo Be's That Way (2:19)
13 Orchestra Harlow Freak Off (2:44)
14 Pete Bonet Peter, Peter (2:19)
15 Ralph Robles Come And Get It (2:12)
16 Monguito Santamaria You Need Help (2:03)
17 Jack Constanzo* & Gerry Woo Don't Squeeze The Peaches (2:39)
18 Eddie Palmieri & Cal Tjader Come And Get It (2:03)
19 New Swing Sextet* Monkey See, Monkey Do (2:46)
20 George Guzman Lazy Boogaloo (2:07)
21 Dave Cortez* Happy Soul With A Hook (2:14)
22 Tito Puente Safari (2:12)
23 Flash & The Dynamics* Electric Latin Soul (3:21)
24 Harlem River Drive Harlem River Drive Theme (3:19)
Доп. информация: Продолжение на тему DJ format - European Vacation
http://rutracker.org/forum/viewtopic.php?t=1236387
Credits:  Compiled By, DJ Mix - DJ Format
Notes: DJ Format cuts and blends his favourite sounds from the legendary Fania, Tico, Alegre and Cotique labels.
Sticker on front cover shows: Fania: Remastered from the original source tapes.
LOG
Exact Audio Copy V0.99 prebeta 3 from 28. July 2007
EAC extraction logfile from 19. December 2007, 0:07
Fania DJ Series / DJ Format
Used drive : _NEC DVD+-RW ND-3530A Adapter: 0 ID: 0
Read mode : Secure
Utilize accurate stream : Yes
Defeat audio cache : Yes
Make use of C2 pointers : No
Read offset correction : 48
Overread into Lead-In and Lead-Out : No
Fill up missing offset samples with silence : Yes
Delete leading and trailing silent blocks : No
Null samples used in CRC calculations : Yes
Used interface : Native Win32 interface for Win NT & 2000
Gap handling : Appended to previous track
Used output format : User Defined Encoder
Selected bitrate : 128 kBit/s
Quality : High
Add ID3 tag : Yes
Command line compressor : C:\Program Files\Exact Audio Copy\Flac\flac.exe
Additional command line options : -8 -A tukey(0.25) -A gauss(0.1875) -b 4096 -V -T "artist=%a" -T "title=%t" -T "album=%g" -T "date=%y" -T "tracknumber=%n" -T "genre=%m" %s --sector-align
TOC of the extracted CD
Track | Start | Length | Start sector | End sector
---------------------------------------------------------
1 | 0:00.00 | 3:01.04 | 0 | 13578
2 | 3:01.04 | 1:44.63 | 13579 | 21441
3 | 4:45.67 | 3:00.43 | 21442 | 34984
4 | 7:46.35 | 2:49.57 | 34985 | 47716
5 | 10:36.17 | 2:32.25 | 47717 | 59141
6 | 13:08.42 | 3:38.34 | 59142 | 75525
7 | 16:47.01 | 1:19.23 | 75526 | 81473
8 | 18:06.24 | 1:58.37 | 81474 | 90360
9 | 20:04.61 | 2:02.33 | 90361 | 99543
10 | 22:07.19 | 2:19.44 | 99544 | 110012
11 | 24:26.63 | 2:00.49 | 110013 | 119061
12 | 26:27.37 | 2:19.50 | 119062 | 129536
13 | 28:47.12 | 2:44.68 | 129537 | 141904
14 | 31:32.05 | 2:19.24 | 141905 | 152353
15 | 33:51.29 | 2:12.72 | 152354 | 162325
16 | 36:04.26 | 2:03.03 | 162326 | 171553
17 | 38:07.29 | 2:39.24 | 171554 | 183502
18 | 40:46.53 | 2:03.49 | 183503 | 192776
19 | 42:50.27 | 2:46.14 | 192777 | 205240
20 | 45:36.41 | 2:07.68 | 205241 | 214833
21 | 47:44.34 | 2:14.50 | 214834 | 224933
22 | 49:59.09 | 2:12.66 | 224934 | 234899
23 | 52:12.00 | 3:21.35 | 234900 | 250009
24 | 55:33.35 | 3:19.49 | 250010 | 264983
Track 1
Filename L:\raoul\music\# funk, soul, new world, etc\DJ Format - Fania DJ Series\01. Fania DJ Series - Louie Ramirez , Ali Baba.wav
Pre-gap length 0:00:02.00
Peak level 96.6 %
Track quality 100.0 %
Test CRC 1549522B
Copy CRC 1549522B
Accurately ripped (confidence 1) [8AD71A6E]
Copy OK
Track 2
Filename L:\raoul\music\# funk, soul, new world, etc\DJ Format - Fania DJ Series\02. Fania DJ Series - Ray Barretto , Right On.wav
Peak level 81.0 %
Track quality 100.0 %
Test CRC D08C645C
Copy CRC D08C645C
Accurately ripped (confidence 1) [4EA3C4E0]
Copy OK
Track 3
Filename L:\raoul\music\# funk, soul, new world, etc\DJ Format - Fania DJ Series\03. Fania DJ Series - Jack Constanzo & Gerry Woo , Jive Samba.wav
Peak level 81.5 %
Track quality 100.0 %
Test CRC 53B6D5E0
Copy CRC 53B6D5E0
Accurately ripped (confidence 1) [4F65F541]
Copy OK
Track 4
Filename L:\raoul\music\# funk, soul, new world, etc\DJ Format - Fania DJ Series\04. Fania DJ Series - Quetcy Alma , Deep.wav
Peak level 82.6 %
Track quality 100.0 %
Test CRC C3E223CB
Copy CRC C3E223CB
Accurately ripped (confidence 1) [8F9D448C]
Copy OK
Track 5
Filename L:\raoul\music\# funk, soul, new world, etc\DJ Format - Fania DJ Series\05. Fania DJ Series - Chollo Rivera & The Latin Soul Drives , Black & Blues.wav
Peak level 82.1 %
Track quality 100.0 %
Test CRC FD66B5D4
Copy CRC FD66B5D4
Accurately ripped (confidence 1) [8CA91795]
Copy OK
Track 6
Filename L:\raoul\music\# funk, soul, new world, etc\DJ Format - Fania DJ Series\06. Fania DJ Series - The Latinaires , Creation.wav
Peak level 79.4 %
Track quality 100.0 %
Test CRC 472FE681
Copy CRC 472FE681
Accurately ripped (confidence 1) [E875AFD5]
Copy OK
Track 7
Filename L:\raoul\music\# funk, soul, new world, etc\DJ Format - Fania DJ Series\07. Fania DJ Series - The Lebron Brothers , Dance, Dance, Dance.wav
Peak level 79.4 %
Track quality 100.0 %
Test CRC 5B7BC51E
Copy CRC 5B7BC51E
Accurately ripped (confidence 1) [1B22764E]
Copy OK
Track 8
Filename L:\raoul\music\# funk, soul, new world, etc\DJ Format - Fania DJ Series\08. Fania DJ Series - Jimmy Saboter , Kool It.wav
Peak level 85.5 %
Track quality 100.0 %
Test CRC CA8FFC9F
Copy CRC CA8FFC9F
Accurately ripped (confidence 1) [6FD27A1F]
Copy OK
Track 9
Filename L:\raoul\music\# funk, soul, new world, etc\DJ Format - Fania DJ Series\09. Fania DJ Series - The Latinaires , Society.wav
Peak level 96.6 %
Track quality 100.0 %
Test CRC C8D09CD1
Copy CRC C8D09CD1
Accurately ripped (confidence 1) [465B1ADE]
Copy OK
Track 10
Filename L:\raoul\music\# funk, soul, new world, etc\DJ Format - Fania DJ Series\10. Fania DJ Series - Ray Barretto , New York Soul.wav
Peak level 80.1 %
Track quality 100.0 %
Test CRC E9AB80EE
Copy CRC E9AB80EE
Accurately ripped (confidence 1) [3A83EACE]
Copy OK
Track 11
Filename L:\raoul\music\# funk, soul, new world, etc\DJ Format - Fania DJ Series\11. Fania DJ Series - Johnny Rivera & The Tequila Brass , Johnny On The Warpath.wav
Peak level 96.6 %
Track quality 100.0 %
Test CRC 12CEC314
Copy CRC 12CEC314
Accurately ripped (confidence 1) [6CE7A591]
Copy OK
Track 12
Filename L:\raoul\music\# funk, soul, new world, etc\DJ Format - Fania DJ Series\12. Fania DJ Series - Willie Bobo , Be's That Way.wav
Peak level 96.6 %
Track quality 100.0 %
Test CRC 85C1924C
Copy CRC 85C1924C
Accurately ripped (confidence 1) [1329598E]
Copy OK
Track 13
Filename L:\raoul\music\# funk, soul, new world, etc\DJ Format - Fania DJ Series\13. Fania DJ Series - Orchestra Harlow , Freak Off.wav
Peak level 78.1 %
Track quality 100.0 %
Test CRC B267AAC5
Copy CRC B267AAC5
Accurately ripped (confidence 1) [F884805F]
Copy OK
Track 14
Filename L:\raoul\music\# funk, soul, new world, etc\DJ Format - Fania DJ Series\14. Fania DJ Series - Pete Bonet , Peter, Peter.wav
Peak level 78.2 %
Track quality 100.0 %
Test CRC 5BB371AF
Copy CRC 5BB371AF
Accurately ripped (confidence 1) [41B41C31]
Copy OK
Track 15
Filename L:\raoul\music\# funk, soul, new world, etc\DJ Format - Fania DJ Series\15. Fania DJ Series - Ralph Robles , Come And Get It.wav
Peak level 79.4 %
Track quality 100.0 %
Test CRC 7E1E64FF
Copy CRC 7E1E64FF
Accurately ripped (confidence 1) [B5C82704]
Copy OK
Track 16
Filename L:\raoul\music\# funk, soul, new world, etc\DJ Format - Fania DJ Series\16. Fania DJ Series - Monguito Santamaria , You Need Help.wav
Peak level 83.8 %
Track quality 100.0 %
Test CRC 9F43F53B
Copy CRC 9F43F53B
Accurately ripped (confidence 1) [75F9BB6B]
Copy OK
Track 17
Filename L:\raoul\music\# funk, soul, new world, etc\DJ Format - Fania DJ Series\17. Fania DJ Series - Jack Constanzo & Gerry Woo , Don't Squeeze The Peaches.wav
Peak level 80.8 %
Track quality 100.0 %
Test CRC B0368BD1
Copy CRC B0368BD1
Accurately ripped (confidence 1) [1F20AFA7]
Copy OK
Track 18
Filename L:\raoul\music\# funk, soul, new world, etc\DJ Format - Fania DJ Series\18. Fania DJ Series - Eddie Palmieri & Cal Tjader , Come An' Get It.wav
Peak level 78.4 %
Track quality 100.0 %
Test CRC C22F9B9E
Copy CRC C22F9B9E
Accurately ripped (confidence 1) [E8F4D5CA]
Copy OK
Track 19
Filename L:\raoul\music\# funk, soul, new world, etc\DJ Format - Fania DJ Series\19. Fania DJ Series - The Explosive New Swing Sextet , Monkey See, Monkey Do.wav
Peak level 91.4 %
Track quality 100.0 %
Test CRC D641EB9F
Copy CRC D641EB9F
Accurately ripped (confidence 1) [84006B58]
Copy OK
Track 20
Filename L:\raoul\music\# funk, soul, new world, etc\DJ Format - Fania DJ Series\20. Fania DJ Series - George Guzman , Lazy Boogaloo.wav
Peak level 90.8 %
Track quality 100.0 %
Test CRC BA506262
Copy CRC BA506262
Accurately ripped (confidence 1) [723FB723]
Copy OK
Track 21
Filename L:\raoul\music\# funk, soul, new world, etc\DJ Format - Fania DJ Series\21. Fania DJ Series - Dave Cortez With The Moon People , Happy Soul.wav
Peak level 96.6 %
Track quality 100.0 %
Test CRC 67A0C4DE
Copy CRC 67A0C4DE
Accurately ripped (confidence 1) [A0ADC471]
Copy OK
Track 22
Filename L:\raoul\music\# funk, soul, new world, etc\DJ Format - Fania DJ Series\22. Fania DJ Series - Tito Puente , Safari.wav
Peak level 82.5 %
Track quality 100.0 %
Test CRC 61F89CA1
Copy CRC 61F89CA1
Accurately ripped (confidence 1) [FBD16C32]
Copy OK
Track 23
Filename L:\raoul\music\# funk, soul, new world, etc\DJ Format - Fania DJ Series\23. Fania DJ Series - Flash & The Dynamics , Electric Latin Soul.wav
Peak level 84.9 %
Track quality 100.0 %
Test CRC 66E40C59
Copy CRC 66E40C59
Accurately ripped (confidence 1) [2C4CF00F]
Copy OK
Track 24
Filename L:\raoul\music\# funk, soul, new world, etc\DJ Format - Fania DJ Series\24. Fania DJ Series - Harlem River Drive , Harlem River Drive Theme.wav
Peak level 96.6 %
Track quality 100.0 %
Test CRC A2D327B9
Copy CRC A2D327B9
Accurately ripped (confidence 1) [C2914F91]
Copy OK
All tracks accurately ripped
No errors occurred
End of status report

ЕЩЕ
http://rutracker.org/forum/viewtopic.php?t=1485052
04:30
260
Нет комментариев. Ваш будет первым!