Поиск

(Funk, Soul, Fusion) [CD] Seawind - Seawind - 1976 (2009 Japan Edition), FLAC (tracks+.cue), lossless

(Funk, Soul, Fusion) [CD] Seawind - Seawind - 1976 (2009 Japan Edition), FLAC (tracks+.cue), lossless
Треклист:
Seawind - Seawind
Жанр: Funk, Soul, Fusion
Носитель: CD
Страна-производитель диска (релиза): Япония
Год издания: 2009
Издатель (лейбл): Village Records
Номер по каталогу: VRCL20002
Страна исполнителя (группы): США
Аудиокодек: FLAC (*.flac)
Тип рипа: tracks+.cue
Битрейт аудио: lossless
Продолжительность: 49:00
Источник (релизер): basia64 (what)
Наличие сканов в содержимом раздачи: сетевые
Треклист:
01. We Got a Way (Seawind) - 3:32
02. You Gotta Be Willin' to Lose (Part II) (Wilson) - 2:44
03. He Loves You (Wilson) - 4:54
04. The Devil Is a Liar (Wilson) - 4:37
05. A Love Song/Seawind (Wilson-Nuanez) - 5:43
06. Make Up Your Mind (Mason-Williams) - 4:15
07. Praise (Part I) (Wilson) - 6:05
08. Roadways (Parts I & II) (Wilson) - 8:57
09. Can't Wait (Wilson) - 4:19
10. Please Say Yes (Wilson) - 3:54
 
Лог создания рипа
X Lossless Decoder version 20120609 (141.0)
XLD extraction logfile from 2012-07-18 08:42:19 +0100
Seawind / Seawind [Blu-spec VRCL-20002]
Used drive : HL-DT-ST DVD-RW GH61N (revision PA03)
Ripper mode : XLD Secure Ripper
Disable audio cache : OK for the drive with a cache less than 1375KiB
Make use of C2 pointers : NO
Read offset correction : 667
Max retry count : 20
Gap status : Analyzed, Appended
TOC of the extracted CD
Track | Start | Length | Start sector | End sector
---------------------------------------------------------
1 | 00:00:00 | 03:31:67 | 0 | 15891
2 | 03:31:67 | 02:43:51 | 15892 | 28167
3 | 06:15:43 | 04:53:39 | 28168 | 50181
4 | 11:09:07 | 04:36:42 | 50182 | 70923
5 | 15:45:49 | 05:42:41 | 70924 | 96614
6 | 21:28:15 | 04:15:08 | 96615 | 115747
7 | 25:43:23 | 06:04:59 | 115748 | 143106
8 | 31:48:07 | 08:57:06 | 143107 | 183387
9 | 40:45:13 | 04:18:48 | 183388 | 202785
10 | 45:03:61 | 03:53:70 | 202786 | 220330
AccurateRip Summary
Disc not found in AccurateRip DB.
All Tracks
Album gain : -7.11 dB
Peak : 1.000000
Statistics
Read error : 0
Jitter error (maybe fixed) : 0
Retry sector count : 0
Damaged sector count : 0
Track 01
Filename : /Users/ftontoh/Torrents/01 Seawind - We Got A Way.flac
Pre-gap length : 00:02:00
Track gain : -7.66 dB
Peak : 1.000000
CRC32 hash (test run) : 05A57CED
CRC32 hash : 05A57CED
CRC32 hash (skip zero) : D09D046E
AccurateRip v1 signature : 53036B79
AccurateRip v2 signature : 8E505043
->Track not present in AccurateRip database.
Statistics
Read error : 0
Jitter error (maybe fixed) : 0
Retry sector count : 0
Damaged sector count : 0
Track 02
Filename : /Users/ftontoh/Torrents/02 Seawind - You Gotta Be Willin' To Lose (Part II).flac
Track gain : -8.76 dB
Peak : 1.000000
CRC32 hash (test run) : F36A0D1A
CRC32 hash : F36A0D1A
CRC32 hash (skip zero) : 7C775419
AccurateRip v1 signature : F9703020
AccurateRip v2 signature : 653877D5
->Track not present in AccurateRip database.
Statistics
Read error : 0
Jitter error (maybe fixed) : 0
Retry sector count : 0
Damaged sector count : 0
Track 03
Filename : /Users/ftontoh/Torrents/03 Seawind - He Loves You.flac
Pre-gap length : 00:03:15
Track gain : -5.84 dB
Peak : 1.000000
CRC32 hash (test run) : D04AE708
CRC32 hash : D04AE708
CRC32 hash (skip zero) : BDE902E6
AccurateRip v1 signature : FBD854FA
AccurateRip v2 signature : AC6BE1F0
->Track not present in AccurateRip database.
Statistics
Read error : 0
Jitter error (maybe fixed) : 0
Retry sector count : 0
Damaged sector count : 0
Track 04
Filename : /Users/ftontoh/Torrents/04 Seawind - The Devil Is A Liar.flac
Track gain : -8.32 dB
Peak : 1.000000
CRC32 hash (test run) : 7E8C9712
CRC32 hash : 7E8C9712
CRC32 hash (skip zero) : 5E830099
AccurateRip v1 signature : 0A3E2BD2
AccurateRip v2 signature : A94E1515
->Track not present in AccurateRip database.
Statistics
Read error : 0
Jitter error (maybe fixed) : 0
Retry sector count : 0
Damaged sector count : 0
Track 05
Filename : /Users/ftontoh/Torrents/05 Seawind - A Live Song ~ Seawind.flac
Track gain : -4.02 dB
Peak : 0.999969
CRC32 hash (test run) : 1628DA89
CRC32 hash : 1628DA89
CRC32 hash (skip zero) : 73F1555C
AccurateRip v1 signature : 38330D63
AccurateRip v2 signature : 809302F0
->Track not present in AccurateRip database.
Statistics
Read error : 0
Jitter error (maybe fixed) : 0
Retry sector count : 0
Damaged sector count : 0
Track 06
Filename : /Users/ftontoh/Torrents/06 Seawind - Make Up Your Mind.flac
Pre-gap length : 00:03:08
Track gain : -6.62 dB
Peak : 1.000000
CRC32 hash (test run) : 6A12722E
CRC32 hash : 6A12722E
CRC32 hash (skip zero) : E3C02C4B
AccurateRip v1 signature : 8FE2B762
AccurateRip v2 signature : D6E06A2E
->Track not present in AccurateRip database.
Statistics
Read error : 0
Jitter error (maybe fixed) : 0
Retry sector count : 0
Damaged sector count : 0
Track 07
Filename : /Users/ftontoh/Torrents/07 Seawind - Praise (Part I).flac
Pre-gap length : 00:02:67
Track gain : -7.44 dB
Peak : 1.000000
CRC32 hash (test run) : 6AE45001
CRC32 hash : 6AE45001
CRC32 hash (skip zero) : 11E6D902
AccurateRip v1 signature : 6798EFE7
AccurateRip v2 signature : E316F203
->Track not present in AccurateRip database.
Statistics
Read error : 0
Jitter error (maybe fixed) : 0
Retry sector count : 0
Damaged sector count : 0
Track 08
Filename : /Users/ftontoh/Torrents/08 Seawind - Roadways (Parts I & II).flac
Pre-gap length : 00:01:45
Track gain : -5.62 dB
Peak : 1.000000
CRC32 hash (test run) : C5CBA44D
CRC32 hash : C5CBA44D
CRC32 hash (skip zero) : D2550CF1
AccurateRip v1 signature : 77D7B46D
AccurateRip v2 signature : 977B86B4
->Track not present in AccurateRip database.
Statistics
Read error : 0
Jitter error (maybe fixed) : 0
Retry sector count : 0
Damaged sector count : 0
Track 09
Filename : /Users/ftontoh/Torrents/09 Seawind - Can't Wait (Japan Bonus).flac
Pre-gap length : 00:03:51
Track gain : -7.83 dB
Peak : 1.000000
CRC32 hash (test run) : 508695AA
CRC32 hash : 508695AA
CRC32 hash (skip zero) : 1CE1CBA4
AccurateRip v1 signature : DE38D1B7
AccurateRip v2 signature : 9F11733B
->Track not present in AccurateRip database.
Statistics
Read error : 0
Jitter error (maybe fixed) : 0
Retry sector count : 0
Damaged sector count : 0
Track 10
Filename : /Users/ftontoh/Torrents/10 Seawind - Please Say Yes (Japan Bonus).flac
Pre-gap length : 00:02:65
Track gain : -7.13 dB
Peak : 1.000000
CRC32 hash (test run) : 99E2F1C7
CRC32 hash : 99E2F1C7
CRC32 hash (skip zero) : FB4EA762
AccurateRip v1 signature : 531A955E
AccurateRip v2 signature : 32423478
->Track not present in AccurateRip database.
Statistics
Read error : 0
Jitter error (maybe fixed) : 0
Retry sector count : 0
Damaged sector count : 0
No errors occurred
End of status report
 
Содержание индексной карты (.CUE)
TITLE "Seawind"
PERFORMER "Seawind"
REM GENRE "Jazz"
REM DATE "1976"
REM DISCID 800B790A
REM REPLAYGAIN_ALBUM_GAIN -7.11 dB
REM REPLAYGAIN_ALBUM_PEAK 1.000000
FILE "01 - We Got a Way.flac" WAVE
TRACK 01 AUDIO
TITLE "We Got a Way"
REM REPLAYGAIN_TRACK_GAIN -7.66 dB
REM REPLAYGAIN_TRACK_PEAK 1.000000
INDEX 01 00:00:00
FILE "02 - You Gotta Be Willin' to Lose (Part II).flac" WAVE
TRACK 02 AUDIO
TITLE "You Gotta Be Willin' to Lose (Part II)"
REM REPLAYGAIN_TRACK_GAIN -8.76 dB
REM REPLAYGAIN_TRACK_PEAK 1.000000
INDEX 01 00:00:00
TRACK 03 AUDIO
TITLE "He Loves You"
REM REPLAYGAIN_TRACK_GAIN -5.84 dB
REM REPLAYGAIN_TRACK_PEAK 1.000000
INDEX 00 02:40:36
FILE "03 - He Loves You.flac" WAVE
INDEX 01 00:00:00
FILE "04 - The Devil Is a Liar.flac" WAVE
TRACK 04 AUDIO
TITLE "The Devil Is a Liar"
REM REPLAYGAIN_TRACK_GAIN -8.32 dB
REM REPLAYGAIN_TRACK_PEAK 1.000000
INDEX 01 00:00:00
FILE "05 - A Love Song,Seawind.flac" WAVE
TRACK 05 AUDIO
TITLE "A Love Song/Seawind"
REM REPLAYGAIN_TRACK_GAIN -4.02 dB
REM REPLAYGAIN_TRACK_PEAK 0.999969
INDEX 01 00:00:00
TRACK 06 AUDIO
TITLE "Make Up Your Mind"
REM REPLAYGAIN_TRACK_GAIN -6.62 dB
REM REPLAYGAIN_TRACK_PEAK 1.000000
INDEX 00 05:39:33
FILE "06 - Make Up Your Mind.flac" WAVE
INDEX 01 00:00:00
TRACK 07 AUDIO
TITLE "Praise (Part I)"
REM REPLAYGAIN_TRACK_GAIN -7.44 dB
REM REPLAYGAIN_TRACK_PEAK 1.000000
INDEX 00 04:12:16
FILE "07 - Praise (Part I).flac" WAVE
INDEX 01 00:00:00
TRACK 08 AUDIO
TITLE "Roadways (Parts I & II)"
REM REPLAYGAIN_TRACK_GAIN -5.62 dB
REM REPLAYGAIN_TRACK_PEAK 1.000000
INDEX 00 06:03:14
FILE "08 - Roadways (Parts I & II).flac" WAVE
INDEX 01 00:00:00
TRACK 09 AUDIO
TITLE "Can't Wait"
REM REPLAYGAIN_TRACK_GAIN -7.83 dB
REM REPLAYGAIN_TRACK_PEAK 1.000000
INDEX 00 08:53:30
FILE "09 - Can't Wait.flac" WAVE
INDEX 01 00:00:00
TRACK 10 AUDIO
TITLE "Please Say Yes"
REM REPLAYGAIN_TRACK_GAIN -7.13 dB
REM REPLAYGAIN_TRACK_PEAK 1.000000
INDEX 00 04:15:58
FILE "10 - Please Say Yes.flac" WAVE
INDEX 01 00:00:00
 
Отчет CUETools
[CUETools log; Date: 04.03.2015 23:00:15; Version: 2.1.5]
[CTDB TOCID: sNJixqVdD1rLcy8KjxDwkR0GeRg-] found.
Track | CTDB Status
1 | (1/1) Accurately ripped
2 | (1/1) Accurately ripped
3 | (1/1) Accurately ripped
4 | (1/1) Accurately ripped
5 | (1/1) Accurately ripped
6 | (1/1) Accurately ripped
7 | (1/1) Accurately ripped
8 | (1/1) Accurately ripped
9 | (1/1) Accurately ripped
10 | (1/1) Accurately ripped
[AccurateRip ID: 001132e5-008e08fc-800b790a] found.
Track [ CRC | V2 ] Status
01 [53036b79|8e505043] (0+3/3) Accurately ripped
02 [f9703020|653877d5] (0+3/3) Accurately ripped
03 [fbd854fa|ac6be1f0] (0+3/3) Accurately ripped
04 [0a3e2bd2|a94e1515] (0+3/3) Accurately ripped
05 [38330d63|809302f0] (0+3/3) Accurately ripped
06 [8fe2b762|d6e06a2e] (0+3/3) Accurately ripped
07 [6798efe7|e316f203] (0+3/3) Accurately ripped
08 [77d7b46d|977b86b4] (0+3/3) Accurately ripped
09 [de38d1b7|9f11733b] (0+3/3) Accurately ripped
10 [531a955e|32423478] (0+3/3) Accurately ripped
Track Peak [ CRC32 ] [W/O NULL]
-- 100,0 [53EB1ECC] [897A7491]
01 100,0 [05A57CED] [D09D046E]
02 100,0 [F36A0D1A] [7C775419]
03 100,0 [D04AE708] [BDE902E6]
04 100,0 [7E8C9712] [5E830099]
05 100,0 [1628DA89] [73F1555C]
06 100,0 [6A12722E] [E3C02C4B]
07 100,0 [6AE45001] [11E6D902]
08 100,0 [C5CBA44D] [D2550CF1]
09 100,0 [508695AA] [1CE1CBA4]
10 100,0 [99E2F1C7] [FB4EA762]
 
Review by Alex Henderson
Imagine this: a Hawaiian band that could play gritty, Tower of Power-influenced funk one minute and instrumental jazz fusion the next, and often expressed a Christian viewpoint. Seawind really did fit that description, and while such uniqueness would terrify a lot of marketing people, it earned the Hawaiian outfit a small but loyal cult following. Seawind wasn't nearly as big as it deserved to be, but those who were hip to the band really swore by it. Produced by drummer Harvey Wilson in 1976, Seawind is a superb, highly imaginative debut that thrives on diversity. Singer Pauline Wilson excels on sweaty funk gems like "Make Up Your Mind," "We Got a Way," and "You Gotta Be Willing to Lose," and she is equally expressive on more jazz-oriented offerings such as "The Devil Is a Liar" and "He Loves You" (both of which underscore her Christian beliefs). Meanwhile, Wilson doesn't do any singing at all on the jazz fusion instrumentals "Roadways" and "Praise." Although Seawind fared well on quiet storm formats, black radio tended to shy away from the album. And at the same time, Seawind didn't appeal to jazz purists. But even if Seawind was, from a commercial standpoint, too eclectic for its own good, this LP never sounds unfocused -- the band knew exactly what it was doing in 1976. All of Seawind's albums are worth owning, but this one is arguably its most essential.
 
Состав
Pauline Wilson - vocals, percussion
Bob Wilson - drums, percussion, Remo rototoms
Bud Nuanez - electric guitar, steel-string acoustic guitar, Nashville guitar, vocals
Ken Wild - Fender electric bass, acoustic bass, vocals
Jerry Hey - trumpet, flugelhorn, Yamaha French horn, vocals
Kim Hutchcroft - Yamaha soprano saxophone, alto saxophone, tenor saxophone, baritone saxophone, Yamaha soprano recorder, vocals
Larry Williams - Yamaha Grand Piano, Fender Rhodes electric piano, Arp String Ensemble synthesizer, Arp Odyssey synthesizer, Arp 2600 synthesizer, Oberheim Polyphonic synthesizer, Hohner Clavinet synthesizer, alto saxophone, tenor saxophone, alto flute, vocals
Paulinho Da Costa, Ralph MacDonald - congas, percussion
Ian Underwood - synthesizer programming
Harvey Mason - timpani, congas, percussion, backing vocals
Recorded at Record Plant, CA and Chateau Recorders, CA (#1) in July-September 1976. Bonus tracks #9,10 recorded in 1981.
Приватный:
Нет (DHT включён)
Размер:
306.37 Мб (321,254,085 байт) » файлов: 19
Участники:
0 раздают, 0 качают (0 участников всего)
Внешние участники:
5 раздают, 2 качают (7 участников всего) [ Обновить ]
Есть вопросы - пишите личное сообщение пользователю M0p94ok.
04:31
87
Нет комментариев. Ваш будет первым!