Поиск

(Funk, Soul, Fusion) [CD] Djavan - Collection: 18 releases - 1984-2012, FLAC (tracks+.cue), lossless

(Funk, Soul, Fusion) [CD] Djavan - Collection: 18 releases - 1984-2012, FLAC (tracks+.cue), lossless
Треклист:
Djavan

Жанр: Funk, Soul, Fusion
Носитель: CD
Год издания: 1984-2012
Аудиокодек: FLAC (*.flac)
Тип рипа: tracks+.cue
Битрейт аудио: lossless
Продолжительность: 15:10:15
Источник (релизер): обмен \ свой рип (Djavan - Puzzle of hearts)
Наличие сканов в содержимом раздачи: да
Треклист:
 
1984 - Djavan - Lilas [Epic - 2-464370]

Продолжительность: 41:36
01. Djavan - Lilas [4:44]
02. Djavan - Infinito [5:19]
03. Djavan - Esquinas [5:31]
04. Djavan - Transe [4:55]
05. Djavan - Obi [4:44]
06. Djavan - Miragem [3:54]
07. Djavan - Iris [3:45]
08. Djavan - Canto Da Lira [4:25]
09. Djavan - Liberdade [4:19]
 
 
log and sheet
 
 
Log
EAC extraction logfile from 18. December 2005, 12:53 for CD
Djavan / Lilas
Used drive  : HL-DT-STDVDRAM GSA-4163B   Adapter: 3  ID: 0
Read mode   : Secure with NO C2, accurate stream, disable cache
Read offset correction : 667
Overread into Lead-In and Lead-Out : No
Used output format : C:\Arquivos de programas\FLAC\flac.exe   (User Defined Encoder)
                     320 kBit/s
                     Additional command line options : -5 -V -T "ARTIST=%a" -T "TITLE=%t" -T "ALBUM=%g" -T "DATE=%y" -T "TRACKNUMBER=%n" -T "GENRE=%m" -T "COMMENT=EAC Flac 1.1.2 -5" %s
Other options      :
    Fill up missing offset samples with silence : Yes
    Delete leading and trailing silent blocks : No
    Native Win32 interface for Win NT & 2000
Track  1
     Filename C:\BitTorrent\Pedros\Djavan - Lilas (1984) [FLAC]\01 - Lilas.wav
     Pre-gap length  0:00:02.00
     Peak level 100.0 %
     Track quality 100.0 %
     Test CRC 2E4BBAD2
     Copy CRC 2E4BBAD2
     Copy OK
Track  2
     Filename C:\BitTorrent\Pedros\Djavan - Lilas (1984) [FLAC]\02 - Infinito.wav
     Peak level 91.7 %
     Track quality 100.0 %
     Test CRC 20703A2C
     Copy CRC 20703A2C
     Copy OK
Track  3
     Filename C:\BitTorrent\Pedros\Djavan - Lilas (1984) [FLAC]\03 - Esquinas.wav
     Peak level 87.8 %
     Track quality 99.9 %
     Test CRC 3C0B2C1C
     Copy CRC 3C0B2C1C
     Copy OK
Track  4
     Filename C:\BitTorrent\Pedros\Djavan - Lilas (1984) [FLAC]\04 - Transe.wav
     Peak level 100.0 %
     Track quality 100.0 %
     Test CRC 50B5C630
     Copy CRC 50B5C630
     Copy OK
Track  5
     Filename C:\BitTorrent\Pedros\Djavan - Lilas (1984) [FLAC]\05 - Obi.wav
     Peak level 100.0 %
     Track quality 100.0 %
     Test CRC 33A16B2C
     Copy CRC 33A16B2C
     Copy OK
Track  6
     Filename C:\BitTorrent\Pedros\Djavan - Lilas (1984) [FLAC]\06 - Miragem.wav
     Peak level 99.8 %
     Track quality 99.9 %
     Test CRC 59D66DE1
     Copy CRC 59D66DE1
     Copy OK
Track  7
     Filename C:\BitTorrent\Pedros\Djavan - Lilas (1984) [FLAC]\07 - Iris.wav
     Peak level 98.7 %
     Track quality 100.0 %
     Test CRC BE3A18EA
     Copy CRC BE3A18EA
     Copy OK
Track  8
     Filename C:\BitTorrent\Pedros\Djavan - Lilas (1984) [FLAC]\08 - Canto Da Lira.wav
     Peak level 100.0 %
     Track quality 100.0 %
     Test CRC B79996A1
     Copy CRC B79996A1
     Copy OK
Track  9
     Filename C:\BitTorrent\Pedros\Djavan - Lilas (1984) [FLAC]\09 - Liberdade.wav
     Peak level 78.5 %
     Track quality 100.0 %
     Test CRC 0107B3A8
     Copy CRC 0107B3A8
     Copy OK
No errors occured
End of status report
 
 
CUE
REM GENRE Jazz+Funk
REM DATE 1984
REM DISCID 7909BF09
REM COMMENT "ExactAudioCopy v0.95b3"
PERFORMER "Djavan"
TITLE "Lilas"
FILE "01 - Lilas.wav" WAVE
  TRACK 01 AUDIO
    TITLE "Lilas"
    PERFORMER "Djavan"
    INDEX 01 00:00:00
FILE "02 - Infinito.wav" WAVE
  TRACK 02 AUDIO
    TITLE "Infinito"
    PERFORMER "Djavan"
    INDEX 01 00:00:00
FILE "03 - Esquinas.wav" WAVE
  TRACK 03 AUDIO
    TITLE "Esquinas"
    PERFORMER "Djavan"
    INDEX 01 00:00:00
FILE "04 - Transe.wav" WAVE
  TRACK 04 AUDIO
    TITLE "Transe"
    PERFORMER "Djavan"
    INDEX 01 00:00:00
FILE "05 - Obi.wav" WAVE
  TRACK 05 AUDIO
    TITLE "Obi"
    PERFORMER "Djavan"
    INDEX 01 00:00:00
FILE "06 - Miragem.wav" WAVE
  TRACK 06 AUDIO
    TITLE "Miragem"
    PERFORMER "Djavan"
    INDEX 01 00:00:00
FILE "07 - Iris.wav" WAVE
  TRACK 07 AUDIO
    TITLE "Iris"
    PERFORMER "Djavan"
    INDEX 01 00:00:00
FILE "08 - Canto Da Lira.wav" WAVE
  TRACK 08 AUDIO
    TITLE "Canto Da Lira"
    PERFORMER "Djavan"
    INDEX 01 00:00:00
FILE "09 - Liberdade.wav" WAVE
  TRACK 09 AUDIO
    TITLE "Liberdade"
    PERFORMER "Djavan"
    INDEX 01 00:00:00
 
 
1986 - Djavan - Meu Lado [Columbia - 850010]

Продолжительность: 34:35
01. Djavan - Beiral [3:08]
02. Djavan - Segredo [4:09]
03. Djavan - Romance [3:21]
04. Djavan - Quase de Manha [3:35]
05. Djavan - Muito Mais [2:55]
06. Djavan - Asa [4:17]
07. Djavan - Topazio [4:50]
08. Djavan - Lei [4:46]
09. Djavan - Nkosi Sikelel' I Afrika [0:57]
10. Djavan - So Bashiya Ba Hlala Ekhaya [2:35]
 
 
log and sheet
 
 
Log
Exact Audio Copy V1.0 beta 1 from 15. November 2010
EAC extraction logfile from 5. December 2010, 17:44
Djavan / Meu Lado
Used drive  : ATAPI   iHAS124   B   Adapter: 4  ID: 0
Read mode               : Secure
Utilize accurate stream : Yes
Defeat audio cache      : Yes
Make use of C2 pointers : No
Read offset correction                      : 6
Overread into Lead-In and Lead-Out          : No
Fill up missing offset samples with silence : Yes
Delete leading and trailing silent blocks   : No
Null samples used in CRC calculations       : Yes
Used interface                              : Native Win32 interface for Win NT & 2000
Gap handling                                : Appended to previous track
Used output format              : User Defined Encoder
Selected bitrate                : 768 kBit/s
Quality                         : High
Add ID3 tag                     : No
Command line compressor         : C:\Program Files (x86)\Exact Audio Copy\FLAC\FLAC.EXE
Additional command line options : -8 -V -T "ARTIST=%a" -T "TITLE=%t" -T "ALBUM=%g" -T "DATE=%y" -T "TRACKNUMBER=%n" -T "TOTALTRACKS=%x" -T "GENRE=%m" -T "ALBUMARTIST=%v" -T "ALBUM ARTIST=%v" -T "COMMENT=EAC Secure Mode, Test & Copy, AccurateRip, FLAC -8" %s
TOC of the extracted CD
     Track |   Start  |  Length  | Start sector | End sector
    ---------------------------------------------------------
        1  |  0:00.00 |  3:08.30 |         0    |    14129
        2  |  3:08.30 |  4:09.28 |     14130    |    32832
        3  |  7:17.58 |  3:21.17 |     32833    |    47924
        4  | 10:39.00 |  3:34.38 |     47925    |    64012
        5  | 14:13.38 |  2:54.57 |     64013    |    77119
        6  | 17:08.20 |  4:17.18 |     77120    |    96412
        7  | 21:25.38 |  4:50.07 |     96413    |   118169
        8  | 26:15.45 |  4:46.30 |    118170    |   139649
        9  | 31:02.00 |  0:57.33 |    139650    |   143957
       10  | 31:59.33 |  2:35.05 |    143958    |   155587
Track  1
     Filename E:\FLAC_EAC\Djavan - Meu Lado (1986) [FLAC]\01 - Beiral.wav
     Pre-gap length  0:00:02.00
     Peak level 85.3 %
     Extraction speed 3.1 X
     Track quality 100.0 %
     Test CRC EDD81575
     Copy CRC EDD81575
     Accurately ripped (confidence 2)  [6EA1ADD9]
     Copy OK
Track  2
     Filename E:\FLAC_EAC\Djavan - Meu Lado (1986) [FLAC]\02 - Segredo.wav
     Peak level 65.2 %
     Extraction speed 3.0 X
     Track quality 99.9 %
     Test CRC 212BD55A
     Copy CRC 212BD55A
     Accurately ripped (confidence 2)  [5B03D608]
     Copy OK
Track  3
     Filename E:\FLAC_EAC\Djavan - Meu Lado (1986) [FLAC]\03 - Romance.wav
     Peak level 75.7 %
     Extraction speed 3.0 X
     Track quality 99.9 %
     Test CRC 4AFEB4EC
     Copy CRC 4AFEB4EC
     Accurately ripped (confidence 2)  [4C6A7DD3]
     Copy OK
Track  4
     Filename E:\FLAC_EAC\Djavan - Meu Lado (1986) [FLAC]\04 - Quase de Manha.wav
     Peak level 88.2 %
     Extraction speed 3.3 X
     Track quality 99.9 %
     Test CRC 33B3D35F
     Copy CRC 33B3D35F
     Accurately ripped (confidence 2)  [739D41A0]
     Copy OK
Track  5
     Filename E:\FLAC_EAC\Djavan - Meu Lado (1986) [FLAC]\05 - Muito Mais.wav
     Peak level 74.6 %
     Extraction speed 4.3 X
     Track quality 100.0 %
     Test CRC A9A30D7F
     Copy CRC A9A30D7F
     Accurately ripped (confidence 2)  [52119410]
     Copy OK
Track  6
     Filename E:\FLAC_EAC\Djavan - Meu Lado (1986) [FLAC]\06 - Asa.wav
     Peak level 84.1 %
     Extraction speed 4.8 X
     Track quality 100.0 %
     Test CRC D4036FD8
     Copy CRC D4036FD8
     Accurately ripped (confidence 2)  [815B1BD2]
     Copy OK
Track  7
     Filename E:\FLAC_EAC\Djavan - Meu Lado (1986) [FLAC]\07 - Topazio.wav
     Peak level 75.2 %
     Extraction speed 5.2 X
     Track quality 100.0 %
     Test CRC DEDD1F58
     Copy CRC DEDD1F58
     Accurately ripped (confidence 2)  [6CA608F4]
     Copy OK
Track  8
     Filename E:\FLAC_EAC\Djavan - Meu Lado (1986) [FLAC]\08 - Lei.wav
     Pre-gap length  0:00:00.70
     Peak level 77.8 %
     Extraction speed 5.5 X
     Track quality 100.0 %
     Test CRC 89812BA8
     Copy CRC 89812BA8
     Accurately ripped (confidence 2)  [7DE6EAC3]
     Copy OK
Track  9
     Filename E:\FLAC_EAC\Djavan - Meu Lado (1986) [FLAC]\09 - Nkosi Sikelel' I Afrika.wav
     Peak level 34.4 %
     Extraction speed 2.1 X
     Track quality 99.8 %
     Test CRC A196C395
     Copy CRC A196C395
     Accurately ripped (confidence 2)  [39E66D2B]
     Copy OK
Track 10
     Filename E:\FLAC_EAC\Djavan - Meu Lado (1986) [FLAC]\10 - So Bashiya Ba Hlala Ekhaya.wav
     Peak level 62.7 %
     Extraction speed 3.8 X
     Track quality 99.9 %
     Test CRC 25B9A1CA
     Copy CRC 25B9A1CA
     Accurately ripped (confidence 2)  [E10D02CD]
     Copy OK
All tracks accurately ripped
No errors occurred
End of status report
==== Log checksum EB8610A54648CF1C74102BF5FABBDCB0797B24E5AB92AE430292A3BA68A76D7D ====
 
 
CUE
REM GENRE MPB
REM DATE 1986
REM DISCID 83081A0A
REM COMMENT "ExactAudioCopy v1.0b1"
PERFORMER "Djavan"
TITLE "Meu Lado"
FILE "01 - Beiral.wav" WAVE
  TRACK 01 AUDIO
    TITLE "Beiral"
    PERFORMER "Djavan"
    INDEX 01 00:00:00
FILE "02 - Segredo.wav" WAVE
  TRACK 02 AUDIO
    TITLE "Segredo"
    PERFORMER "Djavan"
    INDEX 01 00:00:00
FILE "03 - Romance.wav" WAVE
  TRACK 03 AUDIO
    TITLE "Romance"
    PERFORMER "Djavan"
    INDEX 01 00:00:00
FILE "04 - Quase de Manha.wav" WAVE
  TRACK 04 AUDIO
    TITLE "Quase de Manha"
    PERFORMER "Djavan"
    INDEX 01 00:00:00
FILE "05 - Muito Mais.wav" WAVE
  TRACK 05 AUDIO
    TITLE "Muito Mais"
    PERFORMER "Djavan"
    INDEX 01 00:00:00
FILE "06 - Asa.wav" WAVE
  TRACK 06 AUDIO
    TITLE "Asa"
    PERFORMER "Djavan"
    INDEX 01 00:00:00
FILE "07 - Topazio.wav" WAVE
  TRACK 07 AUDIO
    TITLE "Topazio"
    PERFORMER "Djavan"
    INDEX 01 00:00:00
  TRACK 08 AUDIO
    TITLE "Lei"
    PERFORMER "Djavan"
    INDEX 00 04:49:12
FILE "08 - Lei.wav" WAVE
    INDEX 01 00:00:00
FILE "09 - Nkosi Sikelel' I Afrika.wav" WAVE
  TRACK 09 AUDIO
    TITLE "Nkosi Sikelel' I Afrika"
    PERFORMER "Djavan"
    INDEX 01 00:00:00
FILE "10 - So Bashiya Ba Hlala Ekhaya.wav" WAVE
  TRACK 10 AUDIO
    TITLE "So Bashiya Ba Hlala Ekhaya"
    PERFORMER "Djavan"
    INDEX 01 00:00:00
 
 
1987 - Djavan - Nao e azul, mas e mar [Columbia - 850.003]

Продолжительность: 45:49
01. Djavan - Soweto [6:10]
02. Djavan - Bouquet [4:00]
03. Djavan - Me Leve [4:39]
04. Djavan - Dou Nao Dou [4:25]
05. Djavan - Florir [4:12]
06. Djavan - Carnaval No Rio [4:16]
07. Djavan - Navio [5:14]
08. Djavan - Maca [4:08]
09. Djavan - Real [3:55]
10. Djavan - Doidice [4:50]
 
 
log and sheet
 
 
Log
Exact Audio Copy V1.0 beta 1 from 15. November 2010
EAC extraction logfile from 5. December 2010, 16:40
Djavan / Nao e azul, mas e mar
Used drive  : ATAPI   iHAS124   B   Adapter: 4  ID: 0
Read mode               : Secure
Utilize accurate stream : Yes
Defeat audio cache      : Yes
Make use of C2 pointers : No
Read offset correction                      : 6
Overread into Lead-In and Lead-Out          : No
Fill up missing offset samples with silence : Yes
Delete leading and trailing silent blocks   : No
Null samples used in CRC calculations       : Yes
Used interface                              : Native Win32 interface for Win NT & 2000
Gap handling                                : Appended to previous track
Used output format              : User Defined Encoder
Selected bitrate                : 768 kBit/s
Quality                         : High
Add ID3 tag                     : No
Command line compressor         : C:\Program Files (x86)\Exact Audio Copy\FLAC\FLAC.EXE
Additional command line options : -8 -V -T "ARTIST=%a" -T "TITLE=%t" -T "ALBUM=%g" -T "DATE=%y" -T "TRACKNUMBER=%n" -T "TOTALTRACKS=%x" -T "GENRE=%m" -T "ALBUMARTIST=%v" -T "ALBUM ARTIST=%v" -T "COMMENT=EAC Secure Mode, Test & Copy, AccurateRip, FLAC -8" %s
TOC of the extracted CD
     Track |   Start  |  Length  | Start sector | End sector
    ---------------------------------------------------------
        1  |  0:00.32 |  6:10.08 |        32    |    27789
        2  |  6:10.40 |  4:00.05 |     27790    |    45794
        3  | 10:10.45 |  4:38.67 |     45795    |    66711
        4  | 14:49.37 |  4:24.45 |     66712    |    86556
        5  | 19:14.07 |  4:11.48 |     86557    |   105429
        6  | 23:25.55 |  4:16.17 |    105430    |   124646
        7  | 27:41.72 |  5:14.15 |    124647    |   148211
        8  | 32:56.12 |  4:08.25 |    148212    |   166836
        9  | 37:04.37 |  3:54.65 |    166837    |   184451
       10  | 40:59.27 |  4:49.53 |    184452    |   206179
Track  1
     Filename E:\FLAC_EAC\Djavan - Nao e azul, mas e mar (1987) [FLAC]\01 - Soweto.wav
     Pre-gap length  0:00:02.32
     Peak level 100.0 %
     Extraction speed 3.6 X
     Track quality 100.0 %
     Test CRC A6D85D0B
     Copy CRC A6D85D0B
     Accurately ripped (confidence 1)  [838343DA]
     Copy OK
Track  2
     Filename E:\FLAC_EAC\Djavan - Nao e azul, mas e mar (1987) [FLAC]\02 - Bouquet.wav
     Pre-gap length  0:00:02.08
     Peak level 66.2 %
     Extraction speed 3.2 X
     Track quality 99.9 %
     Test CRC B5329E8F
     Copy CRC B5329E8F
     Accurately ripped (confidence 1)  [4072E668]
     Copy OK
Track  3
     Filename E:\FLAC_EAC\Djavan - Nao e azul, mas e mar (1987) [FLAC]\03 - Me Leve.wav
     Pre-gap length  0:00:01.70
     Peak level 87.0 %
     Extraction speed 4.4 X
     Track quality 100.0 %
     Test CRC A6A5C30D
     Copy CRC A6A5C30D
     Accurately ripped (confidence 1)  [1B706370]
     Copy OK
Track  4
     Filename E:\FLAC_EAC\Djavan - Nao e azul, mas e mar (1987) [FLAC]\04 - Dou Nao Dou.wav
     Pre-gap length  0:00:00.17
     Peak level 100.0 %
     Extraction speed 4.7 X
     Track quality 100.0 %
     Test CRC 8F59B268
     Copy CRC 8F59B268
     Accurately ripped (confidence 1)  [0D3F979C]
     Copy OK
Track  5
     Filename E:\FLAC_EAC\Djavan - Nao e azul, mas e mar (1987) [FLAC]\05 - Florir.wav
     Pre-gap length  0:00:00.02
     Peak level 67.6 %
     Extraction speed 4.9 X
     Track quality 100.0 %
     Test CRC E752CDC6
     Copy CRC E752CDC6
     Accurately ripped (confidence 1)  [9DDA8A2B]
     Copy OK
Track  6
     Filename E:\FLAC_EAC\Djavan - Nao e azul, mas e mar (1987) [FLAC]\06 - Carnaval No Rio.wav
     Pre-gap length  0:00:00.44
     Peak level 94.9 %
     Extraction speed 5.2 X
     Track quality 100.0 %
     Test CRC 3E10451B
     Copy CRC 3E10451B
     Accurately ripped (confidence 1)  [710AF5F9]
     Copy OK
Track  7
     Filename E:\FLAC_EAC\Djavan - Nao e azul, mas e mar (1987) [FLAC]\07 - Navio.wav
     Pre-gap length  0:00:00.37
     Peak level 97.3 %
     Extraction speed 5.6 X
     Track quality 100.0 %
     Test CRC F92D6421
     Copy CRC F92D6421
     Accurately ripped (confidence 1)  [690C5C09]
     Copy OK
Track  8
     Filename E:\FLAC_EAC\Djavan - Nao e azul, mas e mar (1987) [FLAC]\08 - Maca.wav
     Pre-gap length  0:00:01.40
     Peak level 100.0 %
     Extraction speed 5.7 X
     Track quality 100.0 %
     Test CRC 3963AD98
     Copy CRC 3963AD98
     Accurately ripped (confidence 1)  [E36B2A7B]
     Copy OK
Track  9
     Filename E:\FLAC_EAC\Djavan - Nao e azul, mas e mar (1987) [FLAC]\09 - Real.wav
     Pre-gap length  0:00:00.02
     Peak level 93.6 %
     Extraction speed 5.9 X
     Track quality 100.0 %
     Test CRC 894E21F5
     Copy CRC 894E21F5
     Accurately ripped (confidence 1)  [319E0681]
     Copy OK
Track 10
     Filename E:\FLAC_EAC\Djavan - Nao e azul, mas e mar (1987) [FLAC]\10 - Doidice.wav
     Pre-gap length  0:00:00.20
     Peak level 94.3 %
     Extraction speed 5.2 X
     Track quality 99.9 %
     Test CRC 319CF995
     Copy CRC 319CF995
     Accurately ripped (confidence 1)  [76522DF2]
     Copy OK
All tracks accurately ripped
No errors occurred
End of status report
==== Log checksum 5B8B1690C782F481401897C464246C6B27894B7A0CD8D36CD04F64DE9746EE35 ====
 
 
CUE
REM GENRE MPB
REM DATE 1987
REM DISCID 840ABD0A
REM COMMENT "ExactAudioCopy v1.0b1"
PERFORMER "Djavan"
TITLE "Nao e azul, mas e mar"
FILE "01 - Soweto.wav" WAVE
  TRACK 01 AUDIO
    TITLE "Soweto"
    PERFORMER "Djavan"
    PREGAP 00:00:32
    INDEX 01 00:00:00
  TRACK 02 AUDIO
    TITLE "Bouquet"
    PERFORMER "Djavan"
    INDEX 00 06:08:00
FILE "02 - Bouquet.wav" WAVE
    INDEX 01 00:00:00
  TRACK 03 AUDIO
    TITLE "Me Leve"
    PERFORMER "Djavan"
    INDEX 00 03:58:10
FILE "03 - Me Leve.wav" WAVE
    INDEX 01 00:00:00
  TRACK 04 AUDIO
    TITLE "Dou Nao Dou"
    PERFORMER "Djavan"
    INDEX 00 04:38:50
FILE "04 - Dou Nao Dou.wav" WAVE
    INDEX 01 00:00:00
  TRACK 05 AUDIO
    TITLE "Florir"
    PERFORMER "Djavan"
    INDEX 00 04:24:43
FILE "05 - Florir.wav" WAVE
    INDEX 01 00:00:00
  TRACK 06 AUDIO
    TITLE "Carnaval No Rio"
    PERFORMER "Djavan"
    INDEX 00 04:11:04
FILE "06 - Carnaval No Rio.wav" WAVE
    INDEX 01 00:00:00
  TRACK 07 AUDIO
    TITLE "Navio"
    PERFORMER "Djavan"
    INDEX 00 04:15:55
FILE "07 - Navio.wav" WAVE
    INDEX 01 00:00:00
  TRACK 08 AUDIO
    TITLE "Maca"
    PERFORMER "Djavan"
    INDEX 00 05:12:50
FILE "08 - Maca.wav" WAVE
    INDEX 01 00:00:00
  TRACK 09 AUDIO
    TITLE "Real"
    PERFORMER "Djavan"
    INDEX 00 04:08:23
FILE "09 - Real.wav" WAVE
    INDEX 01 00:00:00
  TRACK 10 AUDIO
    TITLE "Doidice"
    PERFORMER "Djavan"
    INDEX 00 03:54:45
FILE "10 - Doidice.wav" WAVE
    INDEX 01 00:00:00
 
 
1990 - Djavan - Puzzle of hearts [Columbia - CK 45435]

Продолжительность: 40:43
01. Djavan - Corisco [3:41]
02. Djavan - Being cool [3:03]
03. Djavan - Cigano [4:45]
04. Djavan - Puzzle of hearts [4:57]
05. Djavan - Vida Real [4:11]
06. Djavan - Amazon farewell [5:28]
07. Djavan - Mil vezes [3:14]
08. Djavan - Voce bem sabe [3:12]
09. Djavan - Mal de mim [3:18]
10. Djavan - Oceano [4:55]
 
 
log and sheet
 
 
Log
Exact Audio Copy V0.99 prebeta 5 from 4. May 2009
EAC extraction logfile from 4. September 2010, 17:51
Djavan / Puzzle of hearts
Used drive  : Optiarc DVD RW AD-5200A   Adapter: 1  ID: 0
Read mode               : Secure
Utilize accurate stream : Yes
Defeat audio cache      : Yes
Make use of C2 pointers : No
Read offset correction                      : 48
Overread into Lead-In and Lead-Out          : No
Fill up missing offset samples with silence : Yes
Delete leading and trailing silent blocks   : No
Null samples used in CRC calculations       : Yes
Used interface                              : Native Win32 interface for Win NT & 2000
Gap handling                                : Appended to previous track
Used output format              : User Defined Encoder
Selected bitrate                : 128 kBit/s
Quality                         : High
Add ID3 tag                     : No
Command line compressor         : C:\Program Files\FLAC\flac.exe
Additional command line options : -5 -V -T "ARTIST=%a" -T "TITLE=%t" -T "ALBUM=%g" -T "DATE=%y" -T "TRACKNUMBER=%n" -T "GENRE=%m" -T "COMMENT=Ripped By andygrakoff aka yetiisyou" %s
TOC of the extracted CD
     Track |   Start  |  Length  | Start sector | End sector
    ---------------------------------------------------------
        1  |  0:00.00 |  3:41.27 |         0    |    16601
        2  |  3:41.27 |  3:02.70 |     16602    |    30321
        3  |  6:44.22 |  4:44.58 |     30322    |    51679
        4  | 11:29.05 |  4:57.17 |     51680    |    73971
        5  | 16:26.22 |  4:11.13 |     73972    |    92809
        6  | 20:37.35 |  5:27.62 |     92810    |   117396
        7  | 26:05.22 |  3:13.38 |    117397    |   131909
        8  | 29:18.60 |  3:11.67 |    131910    |   146301
        9  | 32:30.52 |  3:17.50 |    146302    |   161126
       10  | 35:48.27 |  4:54.73 |    161127    |   183249
Track  1
     Filename F:\!Rips\Djavan - Puzzle of hearts 1990 (CK 45435)\01  – Corisco.wav
     Pre-gap length  0:00:02.00
     Peak level 100.0 %
     Track quality 100.0 %
     Test CRC 5666CB75
     Copy CRC 5666CB75
     Accurately ripped (confidence 4)  [3CE233C9]
     Copy OK
Track  2
     Filename F:\!Rips\Djavan - Puzzle of hearts 1990 (CK 45435)\02  – Being cool.wav
     Peak level 91.8 %
     Track quality 99.9 %
     Test CRC 05A3BB89
     Copy CRC 05A3BB89
     Accurately ripped (confidence 4)  [B8C1631B]
     Copy OK
Track  3
     Filename F:\!Rips\Djavan - Puzzle of hearts 1990 (CK 45435)\03  – Cigano.wav
     Peak level 67.1 %
     Track quality 100.0 %
     Test CRC 0637DD30
     Copy CRC 0637DD30
     Accurately ripped (confidence 4)  [B807DE53]
     Copy OK
Track  4
     Filename F:\!Rips\Djavan - Puzzle of hearts 1990 (CK 45435)\04  – Puzzle of hearts.wav
     Peak level 81.4 %
     Track quality 100.0 %
     Test CRC 22DDB39E
     Copy CRC 22DDB39E
     Accurately ripped (confidence 4)  [713A5A50]
     Copy OK
Track  5
     Filename F:\!Rips\Djavan - Puzzle of hearts 1990 (CK 45435)\05  – Vida Real.wav
     Peak level 80.8 %
     Track quality 100.0 %
     Test CRC D1C3B109
     Copy CRC D1C3B109
     Accurately ripped (confidence 4)  [19D0CFEF]
     Copy OK
Track  6
     Filename F:\!Rips\Djavan - Puzzle of hearts 1990 (CK 45435)\06  – Amazon farewell.wav
     Peak level 90.3 %
     Track quality 100.0 %
     Test CRC FCE09330
     Copy CRC FCE09330
     Accurately ripped (confidence 4)  [99883D65]
     Copy OK
Track  7
     Filename F:\!Rips\Djavan - Puzzle of hearts 1990 (CK 45435)\07  – Mil vezes.wav
     Peak level 75.6 %
     Track quality 100.0 %
     Test CRC EC498212
     Copy CRC EC498212
     Accurately ripped (confidence 4)  [D63FF68C]
     Copy OK
Track  8
     Filename F:\!Rips\Djavan - Puzzle of hearts 1990 (CK 45435)\08  – Voce bem sabe.wav
     Peak level 73.8 %
     Track quality 100.0 %
     Test CRC FB2DEF5F
     Copy CRC FB2DEF5F
     Accurately ripped (confidence 4)  [1AD99FE3]
     Copy OK
Track  9
     Filename F:\!Rips\Djavan - Puzzle of hearts 1990 (CK 45435)\09  – Mal de mim.wav
     Peak level 62.4 %
     Track quality 100.0 %
     Test CRC CA6C9309
     Copy CRC CA6C9309
     Accurately ripped (confidence 3)  [2FAD93C4]
     Copy OK
Track 10
     Filename F:\!Rips\Djavan - Puzzle of hearts 1990 (CK 45435)\10  – Oceano.wav
     Peak level 63.1 %
     Track quality 100.0 %
     Test CRC F489CE42
     Copy CRC F489CE42
     Accurately ripped (confidence 4)  [F4095DC6]
     Copy OK
All tracks accurately ripped
No errors occurred
End of status report
 
 
CUE
REM GENRE Jazz+Funk
REM DATE 1990
REM DISCID 85098B0A
REM COMMENT "ExactAudioCopy v0.99pb5"
PERFORMER "Djavan"
TITLE "Puzzle of hearts"
FILE "01  – Corisco.wav" WAVE
  TRACK 01 AUDIO
    TITLE "Corisco"
    PERFORMER "Djavan"
    INDEX 01 00:00:00
FILE "02  – Being cool.wav" WAVE
  TRACK 02 AUDIO
    TITLE "Being cool"
    PERFORMER "Djavan"
    INDEX 01 00:00:00
FILE "03  – Cigano.wav" WAVE
  TRACK 03 AUDIO
    TITLE "Cigano"
    PERFORMER "Djavan"
    INDEX 01 00:00:00
FILE "04  – Puzzle of hearts.wav" WAVE
  TRACK 04 AUDIO
    TITLE "Puzzle of hearts"
    PERFORMER "Djavan"
    INDEX 01 00:00:00
FILE "05  – Vida Real.wav" WAVE
  TRACK 05 AUDIO
    TITLE "Vida Real"
    PERFORMER "Djavan"
    INDEX 01 00:00:00
FILE "06  – Amazon farewell.wav" WAVE
  TRACK 06 AUDIO
    TITLE "Amazon farewell"
    PERFORMER "Djavan"
    INDEX 01 00:00:00
FILE "07  – Mil vezes.wav" WAVE
  TRACK 07 AUDIO
    TITLE "Mil vezes"
    PERFORMER "Djavan"
    INDEX 01 00:00:00
FILE "08  – Voce bem sabe.wav" WAVE
  TRACK 08 AUDIO
    TITLE "Voce bem sabe"
    PERFORMER "Djavan"
    INDEX 01 00:00:00
FILE "09  – Mal de mim.wav" WAVE
  TRACK 09 AUDIO
    TITLE "Mal de mim"
    PERFORMER "Djavan"
    INDEX 01 00:00:00
FILE "10  – Oceano.wav" WAVE
  TRACK 10 AUDIO
    TITLE "Oceano"
    PERFORMER "Djavan"
    INDEX 01 00:00:00
 
 
1990 - Djavan - Seduzir [World Pacific - CDP 7 48206 2]

Продолжительность: 38:01
01. Djavan - Pedro Brasil [0:01]
01. Djavan - Pedro Brasil [4:44]
02. Djavan - Seduzir [3:35]
03. Djavan - Morena De Endoidecer [4:26]
04. Djavan - Jogral [2:16]
05. Djavan - A Ilha [4:08]
06. Djavan - Faltando Um Pedaço [4:50]
07. Djavan - Êxtase [3:23]
08. Djavan - Lunda [4:02]
09. Djavan - Total Abandono [2:12]
10. Djavan - Nvula Ieza Kia - Humbiumbi [4:27]
 
 
log and sheet
 
 
Log
Exact Audio Copy V1.0 beta 3 from 29. August 2011
EAC extraction logfile from 14. December 2012, 19:17
Djavan / Seduzir
Used drive  : PLEXTOR CD-R   PREMIUM2   Adapter: 3  ID: 1
Read mode               : Secure
Utilize accurate stream : Yes
Defeat audio cache      : Yes
Make use of C2 pointers : No
Read offset correction                      : 30
Overread into Lead-In and Lead-Out          : Yes
Fill up missing offset samples with silence : Yes
Delete leading and trailing silent blocks   : No
Null samples used in CRC calculations       : Yes
Used interface                              : Installed external ASPI interface
Gap handling                                : Appended to previous track
Used output format              : User Defined Encoder
Selected bitrate                : 1024 kBit/s
Quality                         : High
Add ID3 tag                     : No
Command line compressor         : C:\Program Files\Exact Audio Copy\Flac\flac.exe
Additional command line options : -6 -V -T "ARTIST=%artist%" -T "TITLE=%title%" -T "ALBUM=%albumtitle%" -T "DATE=%year%" -T "PERFORMER=%albuminterpret%" -T "TRACKNUMBER=%tracknr%" -T "GENRE=%genre%" -T "COMMENT=EAC Secure, Test&Copy, AccurateRip, FLAC -6" -T "COMPOSER=%composer%" -T "DISCNUMBER=%cdnumber%" -T "TOTALDISCS=%totalcds%" -T "TOTALTRACKS=%numtracks%" %source% -o %dest%
TOC of the extracted CD
     Track |   Start  |  Length  | Start sector | End sector
    ---------------------------------------------------------
        1  |  0:00.32 |  4:44.30 |        32    |    21361
        2  |  4:44.62 |  3:35.28 |     21362    |    37514
        3  |  8:20.15 |  4:26.15 |     37515    |    57479
        4  | 12:46.30 |  2:15.42 |     57480    |    67646
        5  | 15:01.72 |  4:08.18 |     67647    |    86264
        6  | 19:10.15 |  4:50.05 |     86265    |   108019
        7  | 24:00.20 |  3:22.62 |    108020    |   123231
        8  | 27:23.07 |  4:01.73 |    123232    |   141379
        9  | 31:25.05 |  2:12.05 |    141380    |   151284
       10  | 33:37.10 |  4:27.37 |    151285    |   171346
Track  1
     Filename D:\Latin\Djavan - Seduzir (1981) [FLAC] (World Pacific CDP 7 48206 2)\01 - Pedro Brasil.wav
     Pre-gap length  0:00:02.32
     Peak level 95.8 %
     Extraction speed 2.7 X
     Track quality 100.0 %
     Test CRC 179EB8B2
     Copy CRC 179EB8B2
     Accurately ripped (confidence 5)  [6D744B2A]  (AR v1)
     Copy OK
Track  2
     Filename D:\Latin\Djavan - Seduzir (1981) [FLAC] (World Pacific CDP 7 48206 2)\02 - Seduzir.wav
     Pre-gap length  0:00:01.20
     Peak level 99.9 %
     Extraction speed 2.0 X
     Track quality 100.0 %
     Test CRC DED9D111
     Copy CRC DED9D111
     Accurately ripped (confidence 5)  [72F0809D]  (AR v1)
     Copy OK
Track  3
     Filename D:\Latin\Djavan - Seduzir (1981) [FLAC] (World Pacific CDP 7 48206 2)\03 - Morena De Endoidecer.wav
     Pre-gap length  0:00:01.15
     Peak level 69.5 %
     Extraction speed 2.0 X
     Track quality 100.0 %
     Test CRC 6C90EE87
     Copy CRC 6C90EE87
     Accurately ripped (confidence 5)  [580F6550]  (AR v1)
     Copy OK
Track  4
     Filename D:\Latin\Djavan - Seduzir (1981) [FLAC] (World Pacific CDP 7 48206 2)\04 - Jogral.wav
     Pre-gap length  0:00:01.58
     Peak level 98.7 %
     Extraction speed 1.8 X
     Track quality 100.0 %
     Test CRC 4B9F1B58
     Copy CRC 4B9F1B58
     Accurately ripped (confidence 5)  [12F7D3D1]  (AR v1)
     Copy OK
Track  5
     Filename D:\Latin\Djavan - Seduzir (1981) [FLAC] (World Pacific CDP 7 48206 2)\05 - A Ilha.wav
     Pre-gap length  0:00:01.30
     Peak level 78.4 %
     Extraction speed 1.9 X
     Track quality 100.0 %
     Test CRC B6E60993
     Copy CRC B6E60993
     Accurately ripped (confidence 5)  [1165458F]  (AR v1)
     Copy OK
Track  6
     Filename D:\Latin\Djavan - Seduzir (1981) [FLAC] (World Pacific CDP 7 48206 2)\06 - Faltando Um Pedaco.wav
     Pre-gap length  0:00:02.05
     Peak level 81.0 %
     Extraction speed 2.0 X
     Track quality 100.0 %
     Test CRC 5F806FB2
     Copy CRC 5F806FB2
     Accurately ripped (confidence 5)  [FCF39D19]  (AR v1)
     Copy OK
Track  7
     Filename D:\Latin\Djavan - Seduzir (1981) [FLAC] (World Pacific CDP 7 48206 2)\07 - Extase.wav
     Pre-gap length  0:00:01.30
     Peak level 99.6 %
     Extraction speed 1.7 X
     Track quality 99.9 %
     Test CRC 8CF1D715
     Copy CRC 8CF1D715
     Accurately ripped (confidence 5)  [BA36E4EA]  (AR v1)
     Copy OK
Track  8
     Filename D:\Latin\Djavan - Seduzir (1981) [FLAC] (World Pacific CDP 7 48206 2)\08 - Lunda.wav
     Pre-gap length  0:00:02.00
     Peak level 100.0 %
     Extraction speed 1.9 X
     Track quality 100.0 %
     Test CRC A20F5171
     Copy CRC A20F5171
     Accurately ripped (confidence 5)  [E8EF8B2D]  (AR v1)
     Copy OK
Track  9
     Filename D:\Latin\Djavan - Seduzir (1981) [FLAC] (World Pacific CDP 7 48206 2)\09 - Total Abandono.wav
     Pre-gap length  0:00:01.58
     Peak level 82.0 %
     Extraction speed 1.8 X
     Track quality 100.0 %
     Test CRC F4ECFDBD
     Copy CRC F4ECFDBD
     Accurately ripped (confidence 5)  [2056E5BF]  (AR v1)
     Copy OK
Track 10
     Filename D:\Latin\Djavan - Seduzir (1981) [FLAC] (World Pacific CDP 7 48206 2)\10 - Nvula Ieza Kia - Humbiumbi.wav
     Pre-gap length  0:00:01.50
     Peak level 99.9 %
     Extraction speed 2.2 X
     Track quality 100.0 %
     Test CRC C1DAA3C8
     Copy CRC C1DAA3C8
     Accurately ripped (confidence 4)  [7FDFC170]  (AR v1)
     Copy OK
All tracks accurately ripped
No errors occurred
End of status report
==== Log checksum 2FD0A9890D804B4DBA872C6D6572D53EC3D8CF523179A25675E0DADC9A197B3D ====
 
 
CUE
REM GENRE Latin
REM DATE 1981
REM DISCID 8208EC0A
REM COMMENT "ExactAudioCopy v1.0b3"
PERFORMER "Djavan"
TITLE "Seduzir"
FILE "01 - Pedro Brasil.wav" WAVE
  TRACK 01 AUDIO
    TITLE "Pedro Brasil"
    PERFORMER "Djavan"
    PREGAP 00:00:32
    INDEX 01 00:00:00
  TRACK 02 AUDIO
    TITLE "Seduzir"
    PERFORMER "Djavan"
    INDEX 00 04:43:10
FILE "02 - Seduzir.wav" WAVE
    INDEX 01 00:00:00
  TRACK 03 AUDIO
    TITLE "Morena De Endoidecer"
    PERFORMER "Djavan"
    INDEX 00 03:34:13
FILE "03 - Morena De Endoidecer.wav" WAVE
    INDEX 01 00:00:00
  TRACK 04 AUDIO
    TITLE "Jogral"
    PERFORMER "Djavan"
    INDEX 00 04:24:32
FILE "04 - Jogral.wav" WAVE
    INDEX 01 00:00:00
  TRACK 05 AUDIO
    TITLE "A Ilha"
    PERFORMER "Djavan"
    INDEX 00 02:14:12
FILE "05 - A Ilha.wav" WAVE
    INDEX 01 00:00:00
  TRACK 06 AUDIO
    TITLE "Faltando Um Pedaco"
    PERFORMER "Djavan"
    INDEX 00 04:06:13
FILE "06 - Faltando Um Pedaco.wav" WAVE
    INDEX 01 00:00:00
  TRACK 07 AUDIO
    TITLE "Extase"
    PERFORMER "Djavan"
    INDEX 00 04:48:50
FILE "07 - Extase.wav" WAVE
    INDEX 01 00:00:00
  TRACK 08 AUDIO
    TITLE "Lunda"
    PERFORMER "Djavan"
    INDEX 00 03:20:62
FILE "08 - Lunda.wav" WAVE
    INDEX 01 00:00:00
  TRACK 09 AUDIO
    TITLE "Total Abandono"
    PERFORMER "Djavan"
    INDEX 00 04:00:15
FILE "09 - Total Abandono.wav" WAVE
    INDEX 01 00:00:00
  TRACK 10 AUDIO
    TITLE "Nvula Ieza Kia - Humbiumbi"
    PERFORMER "Djavan"
    INDEX 00 02:10:30
FILE "10 - Nvula Ieza Kia - Humbiumbi.wav" WAVE
    INDEX 01 00:00:00
 
 
1991 - Djavan - Flor De Lis [RGE - GLO 126]

Продолжительность: 35:51
01. Djavan - Flor de lis [0:01]
01. Djavan - Flor de lis [3:47]
02. Djavan - Na boca de beco [2:05]
03. Djavan - Maçã do rosto [3:17]
04. Djavan - Para-raio [2:31]
05. Djavan - E que deus ajude [3:07]
06. Djavan - Quantas voltas o mundo dá [3:35]
07. Djavan - Maria das Mercedes [2:55]
08. Djavan - Muito obrigado [3:08]
09. Djavan - Embola a bola [2:32]
10. Djavan - Fato consumado [2:36]
11. Djavan - Magia [3:02]
12. Djavan - Ventos do norte [3:17]
 
 
log and sheet
 
 
Log
Exact Audio Copy V1.0 beta 3 from 29. August 2011
EAC extraction logfile from 13. December 2012, 19:32
Djavan / Flor De Lis
Used drive  : PLEXTOR CD-R   PREMIUM2   Adapter: 3  ID: 1
Read mode               : Secure
Utilize accurate stream : Yes
Defeat audio cache      : Yes
Make use of C2 pointers : No
Read offset correction                      : 30
Overread into Lead-In and Lead-Out          : Yes
Fill up missing offset samples with silence : Yes
Delete leading and trailing silent blocks   : No
Null samples used in CRC calculations       : Yes
Used interface                              : Installed external ASPI interface
Gap handling                                : Appended to previous track
Used output format              : User Defined Encoder
Selected bitrate                : 1024 kBit/s
Quality                         : High
Add ID3 tag                     : No
Command line compressor         : C:\Program Files\Exact Audio Copy\Flac\flac.exe
Additional command line options : -6 -V -T "ARTIST=%artist%" -T "TITLE=%title%" -T "ALBUM=%albumtitle%" -T "DATE=%year%" -T "PERFORMER=%albuminterpret%" -T "TRACKNUMBER=%tracknr%" -T "GENRE=%genre%" -T "COMMENT=EAC Secure, Test&Copy, AccurateRip, FLAC -6" -T "COMPOSER=%composer%" -T "DISCNUMBER=%cdnumber%" -T "TOTALDISCS=%totalcds%" -T "TOTALTRACKS=%numtracks%" %source% -o %dest%
TOC of the extracted CD
     Track |   Start  |  Length  | Start sector | End sector
    ---------------------------------------------------------
        1  |  0:00.32 |  3:46.55 |        32    |    17036
        2  |  3:47.12 |  2:04.48 |     17037    |    26384
        3  |  5:51.60 |  3:17.10 |     26385    |    41169
        4  |  9:08.70 |  2:30.50 |     41170    |    52469
        5  | 11:39.45 |  3:06.62 |     52470    |    66481
        6  | 14:46.32 |  3:35.10 |     66482    |    82616
        7  | 18:21.42 |  2:54.60 |     82617    |    95726
        8  | 21:16.27 |  3:07.58 |     95727    |   109809
        9  | 24:24.10 |  2:32.12 |    109810    |   121221
       10  | 26:56.22 |  2:36.30 |    121222    |   132951
       11  | 29:32.52 |  3:01.60 |    132952    |   146586
       12  | 32:34.37 |  3:16.65 |    146587    |   161351
Track  1
     Filename D:\Latin\Djavan - Flor De Lis (1991) [FLAC] (RGE GLO 126 - Original release 1976)\01 - Flor de lis.wav
     Pre-gap length  0:00:02.32
     Peak level 93.0 %
     Extraction speed 2.5 X
     Track quality 99.9 %
     Test CRC F5621373
     Copy CRC F5621373
     Cannot be verified as accurate (confidence 1)  [4751AC2F], AccurateRip returned [8341C563]  (AR v2)
     Copy OK
Track  2
     Filename D:\Latin\Djavan - Flor De Lis (1991) [FLAC] (RGE GLO 126 - Original release 1976)\02 - Na boca de beco.wav
     Pre-gap length  0:00:01.22
     Peak level 95.5 %
     Extraction speed 2.2 X
     Track quality 100.0 %
     Test CRC 3AD65457
     Copy CRC 3AD65457
     Cannot be verified as accurate (confidence 1)  [042D3923], AccurateRip returned [03AB726A]  (AR v2)
     Copy OK
Track  3
     Filename D:\Latin\Djavan - Flor De Lis (1991) [FLAC] (RGE GLO 126 - Original release 1976)\03 - Maca do rosto.wav
     Pre-gap length  0:00:00.73
     Peak level 93.2 %
     Extraction speed 2.2 X
     Track quality 100.0 %
     Test CRC 86C03D47
     Copy CRC 86C03D47
     Cannot be verified as accurate (confidence 1)  [50083F35], AccurateRip returned [B4058FCB]  (AR v2)
     Copy OK
Track  4
     Filename D:\Latin\Djavan - Flor De Lis (1991) [FLAC] (RGE GLO 126 - Original release 1976)\04 - Para-raio.wav
     Pre-gap length  0:00:01.33
     Peak level 92.1 %
     Extraction speed 1.8 X
     Track quality 100.0 %
     Test CRC B7479FE3
     Copy CRC B7479FE3
     Cannot be verified as accurate (confidence 1)  [AB063ADA], AccurateRip returned [6905467A]  (AR v2)
     Copy OK
Track  5
     Filename D:\Latin\Djavan - Flor De Lis (1991) [FLAC] (RGE GLO 126 - Original release 1976)\05 - E que deus ajude.wav
     Pre-gap length  0:00:01.35
     Peak level 89.2 %
     Extraction speed 2.1 X
     Track quality 100.0 %
     Test CRC 77906B90
     Copy CRC 77906B90
     Cannot be verified as accurate (confidence 1)  [84A00AC9], AccurateRip returned [DFB7400A]  (AR v2)
     Copy OK
Track  6
     Filename D:\Latin\Djavan - Flor De Lis (1991) [FLAC] (RGE GLO 126 - Original release 1976)\06 - Quantas voltas o mundo da.wav
     Pre-gap length  0:00:01.57
     Peak level 72.4 %
     Extraction speed 1.8 X
     Track quality 99.9 %
     Test CRC BC8B2683
     Copy CRC BC8B2683
     Cannot be verified as accurate (confidence 1)  [7CEE660E], AccurateRip returned [E84AF830]  (AR v2)
     Copy OK
Track  7
     Filename D:\Latin\Djavan - Flor De Lis (1991) [FLAC] (RGE GLO 126 - Original release 1976)\07 - Maria das Mercedes.wav
     Pre-gap length  0:00:01.35
     Peak level 95.1 %
     Extraction speed 2.0 X
     Track quality 100.0 %
     Test CRC E508BD9D
     Copy CRC E508BD9D
     Cannot be verified as accurate (confidence 1)  [EA8AFD1C], AccurateRip returned [95FBA6E6]  (AR v2)
     Copy OK
Track  8
     Filename D:\Latin\Djavan - Flor De Lis (1991) [FLAC] (RGE GLO 126 - Original release 1976)\08 - Muito obrigado.wav
     Pre-gap length  0:00:01.10
     Peak level 90.9 %
     Extraction speed 2.1 X
     Track quality 100.0 %
     Test CRC CA3AD2B8
     Copy CRC CA3AD2B8
     Cannot be verified as accurate (confidence 1)  [3025D263], AccurateRip returned [0F9CEC86]  (AR v2)
     Copy OK
Track  9
     Filename D:\Latin\Djavan - Flor De Lis (1991) [FLAC] (RGE GLO 126 - Original release 1976)\09 - Embola a bola.wav
     Pre-gap length  0:00:01.73
     Peak level 95.9 %
     Extraction speed 2.1 X
     Track quality 100.0 %
     Test CRC 8DA89E61
     Copy CRC 8DA89E61
     Cannot be verified as accurate (confidence 1)  [EF351366], AccurateRip returned [0E0EEEA3]  (AR v2)
     Copy OK
Track 10
     Filename D:\Latin\Djavan - Flor De Lis (1991) [FLAC] (RGE GLO 126 - Original release 1976)\10 - Fato consumado.wav
     Pre-gap length  0:00:01.30
     Peak level 87.2 %
     Extraction speed 2.2 X
     Track quality 100.0 %
     Test CRC 896944AD
     Copy CRC 896944AD
     Cannot be verified as accurate (confidence 1)  [A3C17854], AccurateRip returned [8BD588ED]  (AR v2)
     Copy OK
Track 11
     Filename D:\Latin\Djavan - Flor De Lis (1991) [FLAC] (RGE GLO 126 - Original release 1976)\11 - Magia.wav
     Pre-gap length  0:00:02.10
     Peak level 92.0 %
     Extraction speed 2.1 X
     Track quality 100.0 %
     Test CRC 8D341C98
     Copy CRC 8D341C98
     Cannot be verified as accurate (confidence 1)  [8BE1B8BA], AccurateRip returned [EA93C770]  (AR v2)
     Copy OK
Track 12
     Filename D:\Latin\Djavan - Flor De Lis (1991) [FLAC] (RGE GLO 126 - Original release 1976)\12 - Ventos do norte.wav
     Pre-gap length  0:00:01.35
     Peak level 75.8 %
     Extraction speed 2.2 X
     Track quality 99.9 %
     Test CRC 17F92880
     Copy CRC 17F92880
     Cannot be verified as accurate (confidence 1)  [C37864A2], AccurateRip returned [84D389BD]  (AR v2)
     Copy OK
No tracks could be verified as accurate
You may have a different pressing from the one(s) in the database
No errors occurred
End of status report
==== Log checksum D31AEAB0F81A50F35FA2AEEC40EB344CCF094B541990DB4C421DD2B3ECF6880F ====
 
 
CUE
REM GENRE Latin
REM DATE 1976
REM DISCID A408670C
REM COMMENT "ExactAudioCopy v1.0b3"
CATALOG 0000000000000
PERFORMER "Djavan"
TITLE "Flor De Lis"
FILE "01 - Flor de lis.wav" WAVE
  TRACK 01 AUDIO
    TITLE "Flor de lis"
    PERFORMER "Djavan"
    ISRC 000000000000
    PREGAP 00:00:32
    INDEX 01 00:00:00
  TRACK 02 AUDIO
    TITLE "Na boca de beco"
    PERFORMER "Djavan"
    ISRC 000000000000
    INDEX 00 03:45:33
FILE "02 - Na boca de beco.wav" WAVE
    INDEX 01 00:00:00
  TRACK 03 AUDIO
    TITLE "Maca do rosto"
    PERFORMER "Djavan"
    ISRC 000000000000
    INDEX 00 02:03:50
FILE "03 - Maca do rosto.wav" WAVE
    INDEX 01 00:00:00
  TRACK 04 AUDIO
    TITLE "Para-raio"
    PERFORMER "Djavan"
    ISRC 000000000000
    INDEX 00 03:15:52
FILE "04 - Para-raio.wav" WAVE
    INDEX 01 00:00:00
  TRACK 05 AUDIO
    TITLE "E que deus ajude"
    PERFORMER "Djavan"
    ISRC 000000000000
    INDEX 00 02:29:15
FILE "05 - E que deus ajude.wav" WAVE
    INDEX 01 00:00:00
  TRACK 06 AUDIO
    TITLE "Quantas voltas o mundo da"
    PERFORMER "Djavan"
    ISRC 000000000000
    INDEX 00 03:05:05
FILE "06 - Quantas voltas o mundo da.wav" WAVE
    INDEX 01 00:00:00
  TRACK 07 AUDIO
    TITLE "Maria das Mercedes"
    PERFORMER "Djavan"
    ISRC 000000000000
    INDEX 00 03:33:50
FILE "07 - Maria das Mercedes.wav" WAVE
    INDEX 01 00:00:00
  TRACK 08 AUDIO
    TITLE "Muito obrigado"
    PERFORMER "Djavan"
    ISRC 000000000000
    INDEX 00 02:53:50
FILE "08 - Muito obrigado.wav" WAVE
    INDEX 01 00:00:00
  TRACK 09 AUDIO
    TITLE "Embola a bola"
    PERFORMER "Djavan"
    ISRC 000000000000
    INDEX 00 03:05:60
FILE "09 - Embola a bola.wav" WAVE
    INDEX 01 00:00:00
  TRACK 10 AUDIO
    TITLE "Fato consumado"
    PERFORMER "Djavan"
    ISRC 000000000000
    INDEX 00 02:30:57
FILE "10 - Fato consumado.wav" WAVE
    INDEX 01 00:00:00
  TRACK 11 AUDIO
    TITLE "Magia"
    PERFORMER "Djavan"
    ISRC 000000000000
    INDEX 00 02:34:20
FILE "11 - Magia.wav" WAVE
    INDEX 01 00:00:00
  TRACK 12 AUDIO
    TITLE "Ventos do norte"
    PERFORMER "Djavan"
    ISRC 000000000000
    INDEX 00 03:00:25
FILE "12 - Ventos do norte.wav" WAVE
    INDEX 01 00:00:00
 
 
1994 - Djavan - Alumbramento + Cara de Indio [EMI - 781010 2]
Продолжительность: 01:08:26
01. Djavan - Cara de Índio [3:09]
02. Djavan - Serrado [3:34]
03. Djavan - Água [3:40]
04. Djavan - Álibi [2:22]
05. Djavan - Numa Esquina de Hanói [3:09]
06. Djavan - Minha Mãe [2:12]
07. Djavan - Alagoas [3:52]
08. Djavan - Estória de Cantador [4:14]
09. Djavan - Nereci [3:20]
10. Djavan - Samba Dobrado [3:30]
11. Djavan - Dupla Traição [3:02]
12. Djavan - Tem Boi na Linha [2:37]
13. Djavan - Sim ou Não [3:15]
14. Djavan - Lambada de Serpente [2:56]
15. Djavan - A Rosa [4:23]
16. Djavan - Dor e Prata [3:28]
17. Djavan - Meu Bem Querer [3:23]
18. Djavan - Aquele Um [3:06]
19. Djavan - Alumbramento [3:28]
20. Djavan - Triste Baía da Guanabara [2:56]
21. Djavan - Sururu de Capote [2:50]
 
 
logs and sheets
 
 
Log
Exact Audio Copy V1.0 beta 3 from 29. August 2011
EAC extraction logfile from 7. February 2013, 12:55
Djavan / Alumbramento/Cara de Índio
Used drive  : HL-DT-STDVDRAM GH22NS50   Adapter: 2  ID: 0
Read mode               : Secure
Utilize accurate stream : Yes
Defeat audio cache      : Yes
Make use of C2 pointers : No
Read offset correction                      : 667
Overread into Lead-In and Lead-Out          : No
Fill up missing offset samples with silence : Yes
Delete leading and trailing silent blocks   : No
Null samples used in CRC calculations       : Yes
Used interface                              : Native Win32 interface for Win NT & 2000
Gap handling                                : Appended to previous track
Used output format              : User Defined Encoder
Selected bitrate                : 1024 kBit/s
Quality                         : High
Add ID3 tag                     : No
Command line compressor         : C:\Program Files (x86)\Exact Audio Copy\Flac\flac.exe
Additional command line options : -8 -V -T "ARTIST=%artist%" -T "TITLE=%title%" -T "ALBUM=%albumtitle%" -T "DATE=%year%" -T "TRACKNUMBER=%tracknr%" -T "GENRE=%genre%" -T "PERFORMER=%albuminterpret%" -T "COMPOSER=%composer%" %haslyrics%--tag-from-file=LYRICS="%lyricsfile%"%haslyrics% -T "ALBUMARTIST=%albumartist%" -T "DISCNUMBER=%cdnumber%" -T "TOTALDISCS=%totalcds%" -T "TOTALTRACKS=%numtracks%" -T "COMMENT=%comment%" %source% -o %dest%
TOC of the extracted CD
     Track |   Start  |  Length  | Start sector | End sector
    ---------------------------------------------------------
        1  |  0:00.32 |  3:09.10 |        32    |    14216
        2  |  3:09.42 |  3:33.60 |     14217    |    30251
        3  |  6:43.27 |  3:40.23 |     30252    |    46774
        4  | 10:23.50 |  2:22.37 |     46775    |    57461
        5  | 12:46.12 |  3:09.03 |     57462    |    71639
        6  | 15:55.15 |  2:11.52 |     71640    |    81516
        7  | 18:06.67 |  3:51.58 |     81517    |    98899
        8  | 21:58.50 |  4:14.10 |     98900    |   117959
        9  | 26:12.60 |  3:20.25 |    117960    |   132984
       10  | 29:33.10 |  3:30.15 |    132985    |   148749
       11  | 33:03.25 |  3:01.52 |    148750    |   162376
       12  | 36:05.02 |  2:37.20 |    162377    |   174171
       13  | 38:42.22 |  3:14.48 |    174172    |   188769
       14  | 41:56.70 |  2:56.15 |    188770    |   201984
       15  | 44:53.10 |  4:23.02 |    201985    |   221711
       16  | 49:16.12 |  3:27.45 |    221712    |   237281
       17  | 52:43.57 |  3:22.45 |    237282    |   252476
       18  | 56:06.27 |  3:05.73 |    252477    |   266424
       19  | 59:12.25 |  3:28.37 |    266425    |   282061
       20  | 62:40.62 |  2:55.60 |    282062    |   295246
       21  | 65:36.47 |  2:50.05 |    295247    |   308001
Track  1
     Filename C:\EAC Rips\Djavan - Alumbramento - Cara de Indio\01 - Cara de Índio.wav
     Pre-gap length  0:00:02.42
     Peak level 100.0 %
     Extraction speed 1.1 X
     Track quality 100.0 %
     Test CRC 2D8BBAEA
     Copy CRC 2D8BBAEA
     Accurately ripped (confidence 1)  [104950B2]  (AR v1)
     Copy OK
Track  2
     Filename C:\EAC Rips\Djavan - Alumbramento - Cara de Indio\02 - Serrado.wav
     Pre-gap length  0:00:00.66
     Peak level 100.0 %
     Extraction speed 1.0 X
     Track quality 99.9 %
     Test CRC 2130834A
     Copy CRC 2130834A
     Accurately ripped (confidence 1)  [FA206BC9]  (AR v1)
     Copy OK
Track  3
     Filename C:\EAC Rips\Djavan - Alumbramento - Cara de Indio\03 - Água.wav
     Pre-gap length  0:00:00.60
     Peak level 100.0 %
     Extraction speed 1.3 X
     Track quality 100.0 %
     Test CRC 81C37896
     Copy CRC 81C37896
     Accurately ripped (confidence 1)  [8B05ABED]  (AR v1)
     Copy OK
Track  4
     Filename C:\EAC Rips\Djavan - Alumbramento - Cara de Indio\04 - Álibi.wav
     Pre-gap length  0:00:00.64
     Peak level 100.0 %
     Extraction speed 1.3 X
     Track quality 100.0 %
     Test CRC 39FC3462
     Copy CRC 39FC3462
     Accurately ripped (confidence 1)  [483B2F77]  (AR v1)
     Copy OK
Track  5
     Filename C:\EAC Rips\Djavan - Alumbramento - Cara de Indio\05 - Numa Esquina de Hanói.wav
     Pre-gap length  0:00:00.60
     Peak level 100.0 %
     Extraction speed 1.4 X
     Track quality 100.0 %
     Test CRC DAC887BB
     Copy CRC DAC887BB
     Accurately ripped (confidence 1)  [2F7EA2BC]  (AR v1)
     Copy OK
Track  6
     Filename C:\EAC Rips\Djavan - Alumbramento - Cara de Indio\06 - Minha Mãe.wav
     Pre-gap length  0:00:00.64
     Peak level 100.0 %
     Extraction speed 1.3 X
     Track quality 100.0 %
     Test CRC 67D0E0FD
     Copy CRC 67D0E0FD
     Accurately ripped (confidence 1)  [40561EC4]  (AR v1)
     Copy OK
Track  7
     Filename C:\EAC Rips\Djavan - Alumbramento - Cara de Indio\07 - Alagoas.wav
     Pre-gap length  0:00:01.60
     Peak level 100.0 %
     Extraction speed 1.6 X
     Track quality 100.0 %
     Test CRC 8ED580EB
     Copy CRC 8ED580EB
     Accurately ripped (confidence 1)  [99FEF413]  (AR v1)
     Copy OK
Track  8
     Filename C:\EAC Rips\Djavan - Alumbramento - Cara de Indio\08 - Estória de Cantador.wav
     Pre-gap length  0:00:00.64
     Peak level 100.0 %
     Extraction speed 1.7 X
     Track quality 100.0 %
     Test CRC D8A9CB2F
     Copy CRC D8A9CB2F
     Accurately ripped (confidence 1)  [87BF1357]  (AR v1)
     Copy OK
Track  9
     Filename C:\EAC Rips\Djavan - Alumbramento - Cara de Indio\09 - Nereci.wav
     Pre-gap length  0:00:00.64
     Peak level 100.0 %
     Extraction speed 1.7 X
     Track quality 100.0 %
     Test CRC 14725975
     Copy CRC 14725975
     Accurately ripped (confidence 1)  [4798D768]  (AR v1)
     Copy OK
Track 10
     Filename C:\EAC Rips\Djavan - Alumbramento - Cara de Indio\10 - Samba Dobrado.wav
     Pre-gap length  0:00:00.60
     Peak level 100.0 %
     Extraction speed 1.8 X
     Track quality 100.0 %
     Test CRC FF2FDD30
     Copy CRC FF2FDD30
     Accurately ripped (confidence 1)  [41E545C0]  (AR v1)
     Copy OK
Track 11
     Filename C:\EAC Rips\Djavan - Alumbramento - Cara de Indio\11 - Dupla Traição.wav
     Pre-gap length  0:00:00.64
     Peak level 100.0 %
     Extraction speed 1.8 X
     Track quality 100.0 %
     Test CRC 644AD4A5
     Copy CRC 644AD4A5
     Accurately ripped (confidence 1)  [162D4F2A]  (AR v1)
     Copy OK
Track 12
     Filename C:\EAC Rips\Djavan - Alumbramento - Cara de Indio\12 - Tem Boi na Linha.wav
     Pre-gap length  0:00:00.60
     Peak level 100.0 %
     Extraction speed 1.8 X
     Track quality 100.0 %
     Test CRC 35322966
     Copy CRC 35322966
     Accurately ripped (confidence 1)  [BA531C3A]  (AR v1)
     Copy OK
Track 13
     Filename C:\EAC Rips\Djavan - Alumbramento - Cara de Indio\13 - Sim ou Não.wav
     Pre-gap length  0:00:00.60
     Peak level 100.0 %
     Extraction speed 2.0 X
     Track quality 100.0 %
     Test CRC 845914B6
     Copy CRC 845914B6
     Accurately ripped (confidence 1)  [C637BCC7]  (AR v1)
     Copy OK
Track 14
     Filename C:\EAC Rips\Djavan - Alumbramento - Cara de Indio\14 - Lambada de Serpente.wav
     Pre-gap length  0:00:00.64
     Peak level 100.0 %
     Extraction speed 1.9 X
     Track quality 100.0 %
     Test CRC EF764E63
     Copy CRC EF764E63
     Accurately ripped (confidence 1)  [302D1715]  (AR v1)
     Copy OK
Track 15
     Filename C:\EAC Rips\Djavan - Alumbramento - Cara de Indio\15 - A Rosa.wav
     Pre-gap length  0:00:00.64
     Peak level 100.0 %
     Extraction speed 2.2 X
     Track quality 100.0 %
     Test CRC 28DB733F
     Copy CRC 28DB733F
     Accurately ripped (confidence 1)  [F94E9955]  (AR v1)
     Copy OK
Track 16
     Filename C:\EAC Rips\Djavan - Alumbramento - Cara de Indio\16 - Dor e Prata.wav
     Pre-gap length  0:00:00.62
     Peak level 100.0 %
     Extraction speed 2.2 X
     Track quality 100.0 %
     Test CRC 41D5E8B0
     Copy CRC 41D5E8B0
     Accurately ripped (confidence 1)  [D3CF8AC4]  (AR v1)
     Copy OK
Track 17
     Filename C:\EAC Rips\Djavan - Alumbramento - Cara de Indio\17 - Meu Bem Querer.wav
     Pre-gap length  0:00:00.62
     Peak level 100.0 %
     Extraction speed 2.2 X
     Track quality 100.0 %
     Test CRC A65BDE54
     Copy CRC A65BDE54
     Accurately ripped (confidence 1)  [F1D8D194]  (AR v1)
     Copy OK
Track 18
     Filename C:\EAC Rips\Djavan - Alumbramento - Cara de Indio\18 - Aquele Um.wav
     Pre-gap length  0:00:00.60
     Peak level 100.0 %
     Extraction speed 2.2 X
     Track quality 100.0 %
     Test CRC A7392C8D
     Copy CRC A7392C8D
     Accurately ripped (confidence 1)  [3D01543F]  (AR v1)
     Copy OK
Track 19
     Filename C:\EAC Rips\Djavan - Alumbramento - Cara de Indio\19 - Alumbramento.wav
     Pre-gap length  0:00:00.60
     Peak level 100.0 %
     Extraction speed 1.9 X
     Track quality 99.9 %
     Test CRC 78628E6A
     Copy CRC 78628E6A
     Accurately ripped (confidence 1)  [2374862A]  (AR v1)
     Copy OK
Track 20
     Filename C:\EAC Rips\Djavan - Alumbramento - Cara de Indio\20 - Triste Baía da Guanabara.wav
     Pre-gap length  0:00:00.62
     Peak level 100.0 %
     Extraction speed 2.2 X
     Track quality 100.0 %
     Test CRC A0461717
     Copy CRC A0461717
     Accurately ripped (confidence 1)  [5CC451BD]  (AR v1)
     Copy OK
Track 21
     Filename C:\EAC Rips\Djavan - Alumbramento - Cara de Indio\21 - Sururu de Capote.wav
     Pre-gap length  0:00:00.60
     Peak level 100.0 %
     Extraction speed 2.3 X
     Track quality 100.0 %
     Test CRC 6969465F
     Copy CRC 6969465F
     Accurately ripped (confidence 1)  [4C54B58D]  (AR v1)
     Copy OK
All tracks accurately ripped
No errors occurred
End of status report
==== Log checksum BC917CFFB6CCF4BAA7E70788FA65A5041499FED4217EBF7663E06216117F3676 ====
 
 
cue
REM GENRE MPB
REM DATE 1994
REM DISCID 57100A15
REM COMMENT "ExactAudioCopy v1.0b3"
FILE "01 - Cara de Нndio.wav" WAVE
  TRACK 01 AUDIO
    PREGAP 00:00:32
    INDEX 01 00:00:00
  TRACK 02 AUDIO
    INDEX 00 03:08:35
FILE "02 - Serrado.wav" WAVE
    INDEX 01 00:00:00
  TRACK 03 AUDIO
    INDEX 00 03:33:15
FILE "03 - Бgua.wav" WAVE
    INDEX 01 00:00:00
  TRACK 04 AUDIO
    INDEX 00 03:39:50
FILE "04 - Бlibi.wav" WAVE
    INDEX 01 00:00:00
  TRACK 05 AUDIO
    INDEX 00 02:21:67
FILE "05 - Numa Esquina de Hanуi.wav" WAVE
    INDEX 01 00:00:00
  TRACK 06 AUDIO
    INDEX 00 03:08:30
FILE "06 - Minha Mгe.wav" WAVE
    INDEX 01 00:00:00
  TRACK 07 AUDIO
    INDEX 00 02:10:07
FILE "07 - Alagoas.wav" WAVE
    INDEX 01 00:00:00
  TRACK 08 AUDIO
    INDEX 00 03:51:10
FILE "08 - Estуria de Cantador.wav" WAVE
    INDEX 01 00:00:00
  TRACK 09 AUDIO
    INDEX 00 04:13:37
FILE "09 - Nereci.wav" WAVE
    INDEX 01 00:00:00
  TRACK 10 AUDIO
    INDEX 00 03:19:55
FILE "10 - Samba Dobrado.wav" WAVE
    INDEX 01 00:00:00
  TRACK 11 AUDIO
    INDEX 00 03:29:42
FILE "11 - Dupla Traiзгo.wav" WAVE
    INDEX 01 00:00:00
  TRACK 12 AUDIO
    INDEX 00 03:01:07
FILE "12 - Tem Boi na Linha.wav" WAVE
    INDEX 01 00:00:00
  TRACK 13 AUDIO
    INDEX 00 02:36:50
FILE "13 - Sim ou Nгo.wav" WAVE
    INDEX 01 00:00:00
  TRACK 14 AUDIO
    INDEX 00 03:14:00
FILE "14 - Lambada de Serpente.wav" WAVE
    INDEX 01 00:00:00
  TRACK 15 AUDIO
    INDEX 00 02:55:42
FILE "15 - A Rosa.wav" WAVE
    INDEX 01 00:00:00
  TRACK 16 AUDIO
    INDEX 00 04:22:30
FILE "16 - Dor e Prata.wav" WAVE
    INDEX 01 00:00:00
  
13:09
419
Нет комментариев. Ваш будет первым!