Поиск

(Funk, Soul) [CD] The Dells - There Is - 1968 (Reissue 1989), FLAC (tracks+.cue), lossless

(Funk, Soul) [CD] The Dells - There Is - 1968 (Reissue 1989), FLAC (tracks+.cue), lossless
Треклист:
The Dells / There Is
Жанр: Funk, Soul
Носитель: CD
Страна-производитель диска (релиза): USA
Год издания: 1968
Издатель (лейбл): Chess, MCA Records
Номер по каталогу: CHD-9288
Аудиокодек: FLAC (*.flac)
Тип рипа: tracks+.cue
Битрейт аудио: lossless
Продолжительность: 40:15
Источник (релизер): DP
Наличие сканов в содержимом раздачи: да
Треклист:
01. There Is
02. Stay In My Corner
03. Wear It On Your Face
04. Please Don't Change Me Now
05. Show Me
06. The Change You Go Through (For Love)
07. (Your Love Has Lifted Me) Higher And Higher
08. Close Your Eyes
9. Run For Cover
10. Love Is So Simple
11. When I'm In Your Arms
12. O-O I Love You
 
Лог создания рипа
Exact Audio Copy V1.0 beta 3 from 29. August 2011
EAC extraction logfile from 20. February 2013, 12:34
The Dells / There Is
Used drive : HL-DT-STDVDRAM GT51N Adapter: 0 ID: 1
Read mode : Secure
Utilize accurate stream : Yes
Defeat audio cache : Yes
Make use of C2 pointers : No
Read offset correction : 103
Overread into Lead-In and Lead-Out : No
Fill up missing offset samples with silence : Yes
Delete leading and trailing silent blocks : No
Null samples used in CRC calculations : Yes
Used interface : Native Win32 interface for Win NT & 2000
Gap handling : Appended to previous track
Used output format : User Defined Encoder
Selected bitrate : 1024 kBit/s
Quality : High
Add ID3 tag : No
Command line compressor : C:\Program Files (x86)\FLAC\flac.exe
Additional command line options : -8 -V -T "ARTIST=%artist%" -T "TITLE=%title%" -T "ALBUM=%albumtitle%" -T "DATE=%year%" -T "TRACKNUMBER=%tracknr%" -T "GENRE=%genre%" -T "PERFORMER=%albuminterpret%" -T "COMPOSER=%composer%" %haslyrics%--tag-from-file=LYRICS="%lyricsfile%"%haslyrics% -T "ALBUMARTIST=%albumartist%" -T "DISCNUMBER=%cdnumber%" -T "TOTALDISCS=%totalcds%" -T "TOTALTRACKS=%numtracks%" -T "COMMENT=%comment%" %source% -o %dest%
TOC of the extracted CD
Track | Start | Length | Start sector | End sector
---------------------------------------------------------
1 | 0:00.00 | 3:34.47 | 0 | 16096
2 | 3:34.47 | 6:13.43 | 16097 | 44114
3 | 9:48.15 | 3:25.47 | 44115 | 59536
4 | 13:13.62 | 3:29.38 | 59537 | 75249
5 | 16:43.25 | 2:33.40 | 75250 | 86764
6 | 19:16.65 | 3:16.15 | 86765 | 101479
7 | 22:33.05 | 2:36.30 | 101480 | 113209
8 | 25:09.35 | 3:04.22 | 113210 | 127031
9 | 28:13.57 | 3:06.23 | 127032 | 141004
10 | 31:20.05 | 2:49.52 | 141005 | 153731
11 | 34:09.57 | 2:46.68 | 153732 | 166249
12 | 36:56.50 | 3:18.05 | 166250 | 181104
Track 1
Filename C:\EAC Rips\The Dells - There Is (1968) {RE, 1989, CHD-9288}\01 There Is.wav
Pre-gap length 0:00:02.00
Peak level 82.3 %
Extraction speed 1.2 X
Track quality 100.0 %
Test CRC 242F572E
Copy CRC 242F572E
Accurately ripped (confidence 1) [A84E5BD1] (AR v1)
Copy OK
Track 2
Filename C:\EAC Rips\The Dells - There Is (1968) {RE, 1989, CHD-9288}\02 Stay In My Corner.wav
Pre-gap length 0:00:03.89
Peak level 94.2 %
Extraction speed 1.5 X
Track quality 100.0 %
Test CRC F0260C79
Copy CRC F0260C79
Accurately ripped (confidence 1) [7867BE34] (AR v1)
Copy OK
Track 3
Filename C:\EAC Rips\The Dells - There Is (1968) {RE, 1989, CHD-9288}\03 Wear It On Your Face.wav
Pre-gap length 0:00:03.50
Peak level 72.3 %
Extraction speed 1.5 X
Track quality 100.0 %
Test CRC AA6BD9F9
Copy CRC AA6BD9F9
Accurately ripped (confidence 1) [7E867EBF] (AR v1)
Copy OK
Track 4
Filename C:\EAC Rips\The Dells - There Is (1968) {RE, 1989, CHD-9288}\04 Please Don't Change Me Now.wav
Pre-gap length 0:00:03.36
Peak level 75.8 %
Extraction speed 1.4 X
Track quality 99.9 %
Test CRC 6A5B2EB5
Copy CRC 6A5B2EB5
Accurately ripped (confidence 1) [A1CF432D] (AR v1)
Copy OK
Track 5
Filename C:\EAC Rips\The Dells - There Is (1968) {RE, 1989, CHD-9288}\05 Show Me.wav
Pre-gap length 0:00:03.17
Peak level 78.3 %
Extraction speed 1.6 X
Track quality 100.0 %
Test CRC DD428766
Copy CRC DD428766
Accurately ripped (confidence 1) [55145217] (AR v1)
Copy OK
Track 6
Filename C:\EAC Rips\The Dells - There Is (1968) {RE, 1989, CHD-9288}\06 The Change You Go Through (For Love).wav
Pre-gap length 0:00:03.73
Peak level 84.0 %
Extraction speed 1.5 X
Track quality 99.9 %
Test CRC 0396B072
Copy CRC 0396B072
Accurately ripped (confidence 1) [5EADF83F] (AR v1)
Copy OK
Track 7
Filename C:\EAC Rips\The Dells - There Is (1968) {RE, 1989, CHD-9288}\07 (Your Love Has Lifted Me) Higher And Higher.wav
Pre-gap length 0:00:01.77
Peak level 67.6 %
Extraction speed 1.7 X
Track quality 100.0 %
Test CRC 5EE9640C
Copy CRC 5EE9640C
Accurately ripped (confidence 1) [07B02D27] (AR v1)
Copy OK
Track 8
Filename C:\EAC Rips\The Dells - There Is (1968) {RE, 1989, CHD-9288}\08 Close Your Eyes.wav
Pre-gap length 0:00:04.24
Peak level 100.0 %
Extraction speed 1.8 X
Track quality 100.0 %
Test CRC 393783D3
Copy CRC 393783D3
Accurately ripped (confidence 1) [0D13F914] (AR v1)
Copy OK
Track 9
Filename C:\EAC Rips\The Dells - There Is (1968) {RE, 1989, CHD-9288}\09 Run For Cover.wav
Pre-gap length 0:00:04.09
Peak level 80.0 %
Extraction speed 1.9 X
Track quality 100.0 %
Test CRC A7C814D8
Copy CRC A7C814D8
Accurately ripped (confidence 1) [1DEDEEE2] (AR v1)
Copy OK
Track 10
Filename C:\EAC Rips\The Dells - There Is (1968) {RE, 1989, CHD-9288}\10 Love Is So Simple.wav
Pre-gap length 0:00:03.73
Peak level 61.9 %
Extraction speed 1.9 X
Track quality 100.0 %
Test CRC 5E349486
Copy CRC 5E349486
Accurately ripped (confidence 1) [43FB795F] (AR v1)
Copy OK
Track 11
Filename C:\EAC Rips\The Dells - There Is (1968) {RE, 1989, CHD-9288}\11 When I'm In Your Arms.wav
Pre-gap length 0:00:03.66
Peak level 75.8 %
Extraction speed 1.9 X
Track quality 100.0 %
Test CRC 555E1821
Copy CRC 555E1821
Accurately ripped (confidence 1) [BB6C3F09] (AR v1)
Copy OK
Track 12
Filename C:\EAC Rips\The Dells - There Is (1968) {RE, 1989, CHD-9288}\12 O-O I Love You.wav
Pre-gap length 0:00:03.13
Peak level 73.9 %
Extraction speed 2.1 X
Track quality 100.0 %
Test CRC 8FDA65A3
Copy CRC 8FDA65A3
Accurately ripped (confidence 1) [838BBB70] (AR v1)
Copy OK
All tracks accurately ripped
No errors occurred
End of status report
---- CUETools DB Plugin V2.1.3
[CTDB TOCID: Ct4WURS9I5c8JqcXR1aiCLgkBsw-] disk not present in database, Submit result: Ct4WURS9I5c8JqcXR1aiCLgkBsw- has been uploaded
==== Log checksum 1F2A511B5136AF676464AED3F52012CA4EFF44DDC6399E6AA42BA6DA86831D51 ====
 
Содержание индексной карты (.CUE)
REM GENRE Soul
REM DATE 1968
REM DISCID 96096E0C
REM COMMENT "ExactAudioCopy v1.0b3"
PERFORMER "The Dells"
TITLE "There Is"
FILE "01 There Is.wav" WAVE
TRACK 01 AUDIO
TITLE "There Is"
PERFORMER "The Dells"
INDEX 01 00:00:00
TRACK 02 AUDIO
TITLE "Stay In My Corner"
PERFORMER "The Dells"
INDEX 00 03:30:55
FILE "02 Stay In My Corner.wav" WAVE
INDEX 01 00:00:00
TRACK 03 AUDIO
TITLE "Wear It On Your Face"
PERFORMER "The Dells"
INDEX 00 06:10:05
FILE "03 Wear It On Your Face.wav" WAVE
INDEX 01 00:00:00
TRACK 04 AUDIO
TITLE "Please Don't Change Me Now"
PERFORMER "The Dells"
INDEX 00 03:22:20
FILE "04 Please Don't Change Me Now.wav" WAVE
INDEX 01 00:00:00
TRACK 05 AUDIO
TITLE "Show Me"
PERFORMER "The Dells"
INDEX 00 03:26:25
FILE "05 Show Me.wav" WAVE
INDEX 01 00:00:00
TRACK 06 AUDIO
TITLE "The Change You Go Through (For Love)"
PERFORMER "The Dells"
INDEX 00 02:29:60
FILE "06 The Change You Go Through (For Love).wav" WAVE
INDEX 01 00:00:00
TRACK 07 AUDIO
TITLE "(Your Love Has Lifted Me) Higher And Higher"
PERFORMER "The Dells"
INDEX 00 03:14:32
FILE "07 (Your Love Has Lifted Me) Higher And Higher.wav" WAVE
INDEX 01 00:00:00
TRACK 08 AUDIO
TITLE "Close Your Eyes"
PERFORMER "The Dells"
INDEX 00 02:32:12
FILE "08 Close Your Eyes.wav" WAVE
INDEX 01 00:00:00
TRACK 09 AUDIO
TITLE "Run For Cover"
PERFORMER "The Dells"
INDEX 00 03:00:15
FILE "09 Run For Cover.wav" WAVE
INDEX 01 00:00:00
TRACK 10 AUDIO
TITLE "Love Is So Simple"
PERFORMER "The Dells"
INDEX 00 03:02:43
FILE "10 Love Is So Simple.wav" WAVE
INDEX 01 00:00:00
TRACK 11 AUDIO
TITLE "When I'm In Your Arms"
PERFORMER "The Dells"
INDEX 00 02:46:02
FILE "11 When I'm In Your Arms.wav" WAVE
INDEX 01 00:00:00
TRACK 12 AUDIO
TITLE "O-O I Love You"
PERFORMER "The Dells"
INDEX 00 02:43:58
FILE "12 O-O I Love You.wav" WAVE
INDEX 01 00:00:00
 
DR Log
foobar2000 1.1.10 / Dynamic Range Meter 1.1.1
log date: 2017-06-10 10:56:28
--------------------------------------------------------------------------------
Analyzed: The Dells / There Is
--------------------------------------------------------------------------------
DR Peak RMS Duration Track
--------------------------------------------------------------------------------
DR12 -1.68 dB -17.16 dB 3:35 ?-There Is
DR13 -0.52 dB -17.91 dB 6:14 ?-Stay In My Corner
DR11 -2.81 dB -15.96 dB 3:26 ?-Wear It On Your Face
DR12 -2.40 dB -18.88 dB 3:30 ?-Please Don't Change Me Now
DR12 -2.12 dB -17.13 dB 2:34 ?-Show Me
DR13 -1.51 dB -18.84 dB 3:16 ?-The Change You Go Through (For Love)
DR12 -3.39 dB -17.60 dB 2:36 ?-(Your Love Has Lifted Me) Higher And Higher
DR12 0.00 dB -17.86 dB 3:04 ?-Close Your Eyes
DR13 -1.93 dB -18.04 dB 3:06 ?-Run For Cover
DR10 -4.16 dB -18.10 dB 2:50 ?-Love Is So Simple
DR12 -2.40 dB -17.22 dB 2:47 ?-When I'm In Your Arms
DR11 -2.62 dB -19.75 dB 3:18 ?-O-O I Love You
--------------------------------------------------------------------------------
Number of tracks: 12
Official DR value: DR12
Samplerate: 44100 Hz
Channels: 2
Bits per sample: 16
Bitrate: 700 kbps
Codec: FLAC
================================================================================
 
Об исполнителе (группе)
Other than their greatest-hits compilations, this by far is the Dells' finest LP release. Bobby Miller excelled in assembling this strong package. The six-minute-plus "Stay in My Corner" remains a live show staple and R&B classic. Written by Wade Flemons, Bobby Miller, and Barrett "Money" Strong, the epic ballad shattered the belief that pop songs had to be three minutes or less to get airplay; it was a remake of a shorter version by the Dells released on Vee Jay in 1965. Miller uses the idea of the quick hook on "Wear It on Our Face," the opening rhythms explode like firecrackers on this driving, high-energy singalong. Few realize it, but the Dells cut and released "Your Love Keeps Lifting Me Higher" before Jackie Wilson did. A good remake of "Close Your Eyes," and the enthralling "Love Is So Simple" proved the guys hadn't forsaken their doo wop roots. The beautiful "O O I Love You" began the longest run on the charts in the Dells' history; originally Cadet released it with "There Is" on the flip side, and it went to Number 22 on the R&B charts and to Number 61 on the popcharts. "There Is" followed with a different flip, "Show Me," and became their biggest pop recording to date, nesting at Number 20. Ironically, the Dells hated "There Is" when Bobby Miller first played it for them, it had a marching beat, and they couldn't see recording it. Marvin Junior, Johnny Carter, Chuck Barksdale, Verne Allison, and Mickey McGill never sounded better then they do on these 12 tantalizing entrees.
 
Состав
Arranged By – Charles Stepney
Producer – Bobby Miller
Vocals – Charles Barksdale, Johnny Carter, Marvin Junior, Michael McGill, Verne Allison
Приватный:
Нет (DHT включён)
Размер:
228.64 Мб (239,749,914 байт) » файлов: 24
Участники:
0 раздают, 1 качают (1 участников всего)
Внешние участники:
2 раздают, 1 качают (3 участников всего) [ Обновить ]
Скорость:
24.11 Кб/c 0/c
Есть вопросы - пишите личное сообщение пользователю M0p94ok.
13:52
104
Нет комментариев. Ваш будет первым!