Поиск

(Funk / Soul) [CD] Gap Band - The Best Of Gap Band: 20th Century Masters The Millenium Collection - 2000, FLAC (tracks+.cue), lossless

(Funk / Soul) [CD] Gap Band - The Best Of Gap Band: 20th Century Masters The Millenium Collection - 2000, FLAC (tracks+.cue), lossless
Треклист:
Gap Band / The Best Of Gap Band: 20th Century Masters The Millenium Collection
Жанр: Funk / Soul
Носитель: CD
Страна-производитель диска (релиза): usa
Год издания: 2000
Издатель (лейбл): Mercury
Номер по каталогу: 314 542 270-2
Страна исполнителя (группы): usa
Аудиокодек: FLAC (*.flac)
Тип рипа: tracks+.cue
Битрейт аудио: lossless
Продолжительность: 60:30
Источник (релизер): teimuraz67
Наличие сканов в содержимом раздачи: да
Треклист:
01 Burn Rubber (Why You Wanna Hurt Me) (05:31)
02 Outstanding (03:19)
03 I Don't Believe You Wanna Get And Dance (Oops!) (08:42)
04 Party Train (05:49)
05 You Dropped A Bomb On Me (05:13)
06 Early In The Morning (06:30)
07 Yearning For Your Love (05:45)
08 Shake (05:00)
09 Season's No Reason To Change (04:51)
10 Steppin' (Out) (04:28)
11 Humpin' (05:16)
 
Лог создания рипа
Exact Audio Copy V1.0 beta 2 from 29. April 2011
Отчёт EAC об извлечении, выполненном 4. октября 2017, 19:57
The Gap Band / The Best Of Gap Band: 20th Century Masters The Millenium Collection
Дисковод: PLEXTOR BDDVDRPX-B330SA Adapter: 0 ID: 1
Режим чтения : Достоверность
Использование точного потока : Да
Отключение кэша аудио : Да
Использование указателей C2 : Нет
Коррекция смещения при чтении : 702
Способность читать области Lead-in и Lead-out : Нет
Заполнение пропущенных сэмплов тишиной : Да
Удаление блоков с тишиной в начале и конце : Нет
При вычислениях CRC использовались нулевые сэмплы : Да
Интерфейс : Встроенный Win32-интерфейс для Win NT/2000
Обработка зазоров : Добавлено к предыдущему треку
Выходной формат : Пользовательский кодировщик
Выбранный битрейт : 128 kBit/s
Качество : Высокий
Добавление ID3-тега : Нет
Утилита сжатия : C:\Program Files\Exact Audio Copy\FLAC\FLAC.EXE
Дополнительные параметры : -6 -V -T "ARTIST=%artist%" -T "TITLE=%title%" -T "ALBUM=%albumtitle%" -T "DATE=%year%" -T "TRACKNUMBER=%tracknr%" -T "GENRE=%genre%" -T "COMMENT=%comment%" -T "BAND=%albuminterpret%" -T "COMPOSER=%composer%" %haslyrics%--tag-from-
TOC извлечённого CD
Трек | Старт | Длительность | Начальный сектор | Конечный сектор
---------------------------------------------------------------------
1 | 0:00.00 | 5:33.00 | 0 | 24974
2 | 5:33.00 | 3:19.02 | 24975 | 39901
3 | 8:52.02 | 8:42.30 | 39902 | 79081
4 | 17:34.32 | 5:49.25 | 79082 | 105281
5 | 23:23.57 | 5:13.25 | 105282 | 128781
6 | 28:37.07 | 6:31.50 | 128782 | 158156
7 | 35:08.57 | 5:45.08 | 158157 | 184039
8 | 40:53.65 | 5:00.62 | 184040 | 206601
9 | 45:54.52 | 4:51.03 | 206602 | 228429
10 | 50:45.55 | 4:28.30 | 228430 | 248559
11 | 55:14.10 | 5:16.15 | 248560 | 272274
Трек 1
Имя файла D:\FLAC\01 Burn Rubber (Why You Wanna Hurt Me).wav
Длина предзазора 0:00:02.00
Пиковый уровень 100.0 %
Скорость извлечения 4.3 X
Качество трека 99.9 %
CRC теста A55C05E9
CRC копии A55C05E9
Точное извлечение (достоверность 1) [AFC7BDD4] (AR v2)
Копирование... OK
Трек 2
Имя файла D:\FLAC\02 Outstanding.wav
Длина предзазора 0:00:02.05
Пиковый уровень 100.0 %
Скорость извлечения 5.0 X
Качество трека 100.0 %
CRC теста 62A31B6B
CRC копии 62A31B6B
Точное извлечение (достоверность 1) [710D541E] (AR v2)
Копирование... OK
Трек 3
Имя файла D:\FLAC\03 I Don't Believe You Wanna Get And Dance (Oops!).wav
Длина предзазора 0:00:01.52
Пиковый уровень 100.0 %
Скорость извлечения 6.0 X
Качество трека 100.0 %
CRC теста 9BF53B7A
CRC копии 9BF53B7A
Точное извлечение (достоверность 1) [D72D7AAA] (AR v2)
Копирование... OK
Трек 4
Имя файла D:\FLAC\04 Party Train.wav
Длина предзазора 0:00:02.40
Пиковый уровень 100.0 %
Скорость извлечения 6.5 X
Качество трека 100.0 %
CRC теста 20CF5B43
CRC копии 20CF5B43
Точное извлечение (достоверность 1) [506367FC] (AR v2)
Копирование... OK
Трек 5
Имя файла D:\FLAC\05 You Dropped A Bomb On Me.wav
Длина предзазора 0:00:02.42
Пиковый уровень 100.0 %
Скорость извлечения 6.9 X
Качество трека 100.0 %
CRC теста FC561DAF
CRC копии FC561DAF
Точное извлечение (достоверность 1) [B0660E0B] (AR v2)
Копирование... OK
Трек 6
Имя файла D:\FLAC\06 Early In The Morning.wav
Длина предзазора 0:00:02.40
Пиковый уровень 100.0 %
Скорость извлечения 7.4 X
Качество трека 100.0 %
CRC теста CEC3EBD3
CRC копии CEC3EBD3
Точное извлечение (достоверность 1) [2E165AC0] (AR v2)
Копирование... OK
Трек 7
Имя файла D:\FLAC\07 Yearning For Your Love.wav
Длина предзазора 0:00:02.40
Пиковый уровень 97.0 %
Скорость извлечения 7.8 X
Качество трека 100.0 %
CRC теста 197C3F87
CRC копии 197C3F87
Точное извлечение (достоверность 1) [D7C05D83] (AR v2)
Копирование... OK
Трек 8
Имя файла D:\FLAC\08 Shake.wav
Длина предзазора 0:00:02.29
Пиковый уровень 100.0 %
Скорость извлечения 7.7 X
Качество трека 100.0 %
CRC теста C7B7A2EF
CRC копии C7B7A2EF
Точное извлечение (достоверность 1) [D0081239] (AR v2)
Копирование... OK
Трек 9
Имя файла D:\FLAC\09 Season's No Reason To Change.wav
Длина предзазора 0:00:02.40
Пиковый уровень 100.0 %
Скорость извлечения 8.1 X
Качество трека 100.0 %
CRC теста 698DD6BF
CRC копии 698DD6BF
Точное извлечение (достоверность 1) [526ADB96] (AR v2)
Копирование... OK
Трек 10
Имя файла D:\FLAC\10 Steppin' (Out).wav
Длина предзазора 0:00:02.40
Пиковый уровень 100.0 %
Скорость извлечения 8.0 X
Качество трека 100.0 %
CRC теста 0FD697C3
CRC копии 0FD697C3
Точное извлечение (достоверность 1) [9A19496E] (AR v2)
Копирование... OK
Трек 11
Имя файла D:\FLAC\11 Humpin'.wav
Длина предзазора 0:00:02.43
Пиковый уровень 100.0 %
Скорость извлечения 3.8 X
Качество трека 100.0 %
CRC теста D58932A4
CRC копии D58932A4
Точное извлечение (достоверность 1) [984EECA1] (AR v2)
Копирование... OK
Все треки извлечены точно
Ошибок не произошло
Конец отчёта
---- CUETools DB Plugin V2.1.4
[CTDB TOCID: lTIWJtjxUN3CuQl_SgSNLf7ATe4-] found
Submit result: lTIWJtjxUN3CuQl_SgSNLf7ATe4- has been confirmed
Track | CTDB Status
1 | (13/13) Accurately ripped
2 | (13/13) Accurately ripped
3 | (13/13) Accurately ripped
4 | (13/13) Accurately ripped
5 | (13/13) Accurately ripped
6 | (13/13) Accurately ripped
7 | (13/13) Accurately ripped
8 | (13/13) Accurately ripped
9 | (13/13) Accurately ripped
10 | (13/13) Accurately ripped
11 | (12/13) Accurately ripped
==== Контрольная сумма отчёта 83F7022823FDD4453C8FD7F7D042EB5CD4F807BE23EB66DCAF4E9CC8EC5857DD ====
 
Содержание индексной карты (.CUE)
REM GENRE Funk
REM DATE 2000
REM DISCID 840E2E0B
REM COMMENT "ExactAudioCopy v1.0b2"
CATALOG 0731454227025
PERFORMER "The Gap Band"
TITLE "The Best Of Gap Band: 20th Century Masters The Millenium Collection"
FILE "01 Burn Rubber (Why You Wanna Hurt Me).wav" WAVE
TRACK 01 AUDIO
TITLE "Burn Rubber (Why You Wanna Hurt Me)"
PERFORMER "The Gap Band"
ISRC USPR38100035
INDEX 01 00:00:00
TRACK 02 AUDIO
TITLE "Outstanding"
PERFORMER "The Gap Band"
ISRC USPR38205279
INDEX 00 05:30:70
FILE "02 Outstanding.wav" WAVE
INDEX 01 00:00:00
TRACK 03 AUDIO
TITLE "I Don't Believe You Wanna Get And Dance (Oops!)"
PERFORMER "The Gap Band"
ISRC USPR37900040
INDEX 00 03:17:25
FILE "03 I Don't Believe You Wanna Get And Dance (Oops!).wav" WAVE
INDEX 01 00:00:00
TRACK 04 AUDIO
TITLE "Party Train"
PERFORMER "The Gap Band"
ISRC USPR38300044
INDEX 00 08:39:65
FILE "04 Party Train.wav" WAVE
INDEX 01 00:00:00
TRACK 05 AUDIO
TITLE "You Dropped A Bomb On Me"
PERFORMER "The Gap Band"
ISRC USPR38200006
INDEX 00 05:46:58
FILE "05 You Dropped A Bomb On Me.wav" WAVE
INDEX 01 00:00:00
TRACK 06 AUDIO
TITLE "Early In The Morning"
PERFORMER "The Gap Band"
ISRC USMR18287009
INDEX 00 05:10:60
FILE "06 Early In The Morning.wav" WAVE
INDEX 01 00:00:00
TRACK 07 AUDIO
TITLE "Yearning For Your Love"
PERFORMER "The Gap Band"
ISRC USPR38100036
INDEX 00 06:29:10
FILE "07 Yearning For Your Love.wav" WAVE
INDEX 01 00:00:00
TRACK 08 AUDIO
TITLE "Shake"
PERFORMER "The Gap Band"
ISRC USPR37900033
INDEX 00 05:42:54
FILE "08 Shake.wav" WAVE
INDEX 01 00:00:00
TRACK 09 AUDIO
TITLE "Season's No Reason To Change"
PERFORMER "The Gap Band"
ISRC USPR38200002
INDEX 00 04:58:22
FILE "09 Season's No Reason To Change.wav" WAVE
INDEX 01 00:00:00
TRACK 10 AUDIO
TITLE "Steppin' (Out)"
PERFORMER "The Gap Band"
ISRC USPR37900004
INDEX 00 04:48:38
FILE "10 Steppin' (Out).wav" WAVE
INDEX 01 00:00:00
TRACK 11 AUDIO
TITLE "Humpin'"
PERFORMER "The Gap Band"
ISRC USPR38000042
INDEX 00 04:25:62
FILE "11 Humpin'.wav" WAVE
INDEX 01 00:00:00
Доп. информация: https://www.discogs.com/Gap-Band-The-Best-Of-Gap-Band/release/170715
Приватный:
Нет (DHT включён)
Размер:
433.22 Мб (454,268,734 байт) » файлов: 26
Участники:
0 раздают, 0 качают (0 участников всего)
Внешние участники:
8 раздают, 2 качают (10 участников всего) [ Обновить ]
No seeders - write personal message to user M0p94ok. Нет сидеров - пишите личное сообщение пользователю M0p94ok.
14:45
73
Нет комментариев. Ваш будет первым!