Поиск

(Funk / Soul) [CD] Father Father - We Are All So Very Happy - 1991, FLAC (tracks+.cue), lossless

(Funk / Soul) [CD] Father Father - We Are All So Very Happy - 1991, FLAC (tracks+.cue), lossless
Треклист:
Father Father / We Are All So Very Happy
Жанр: Funk / Soul
Носитель: CD
Страна-производитель диска (релиза): Germany
Год издания: 1991
Издатель (лейбл): Go! Discs Ltd
Номер по каталогу: 828 258-2
Страна исполнителя (группы): Germany
Аудиокодек: FLAC (*.flac)
Тип рипа: tracks+.cue
Битрейт аудио: lossless
Продолжительность: 01:02:21
Источник (релизер): Свой диск
Наличие сканов в содержимом раздачи: да
Треклист:
01. The Year I Came To Be - 03:59
02. Long As The Rain Keeps Fallin' - 04:30
03. Don't Cry For Me - 03:43
04. Father Father - 03:43
05. Love Life And Life Loving - 04:00
06. Winds Of Change - 04:04
07. Oh Sister - 04:15
08. One Chance - 05:01
09. Washington Rain - 05:06
10. Where Have They Gone? - 05:05
11. Change Has Got to Come - 04:48
12. What Is A Soul - 05:22
13. Don't Be A Fool - 04:57
14. It'S Still Raining - 03:54
 
Лог создания рипа
Exact Audio Copy V1.1 from 23. June 2015
Отчёт EAC об извлечении, выполненном 28. февраля 2016, 19:13
Father Father / We Are All So Very Happy
Дисковод: ATAPI iHAS124 W Adapter: 1 ID: 0
Режим чтения : Достоверность
Использование точного потока : Да
Отключение кэша аудио : Да
Использование указателей C2 : Нет
Коррекция смещения при чтении : 48
Способность читать области Lead-in и Lead-out : Нет
Заполнение пропущенных сэмплов тишиной : Да
Удаление блоков с тишиной в начале и конце : Нет
При вычислениях CRC использовались нулевые сэмплы : Да
Интерфейс : Встроенный Win32-интерфейс для Win NT/2000
Обработка зазоров : Добавлено к предыдущему треку
Выходной формат : Пользовательский кодировщик
Выбранный битрейт : 32 kBit/s
Качество : Высокий
Добавление ID3-тега : Нет
Утилита сжатия : C:\Program Files\Exact Audio Copy\Flac\flac.exe
Дополнительные параметры : -V -8 -T "Genre=%genre%" -T "Artist=%artist%" -T "Title=%title%" -T "Album=%albumtitle%" -T "Date=%year%" -T "Tracknumber=%tracknr%" -T "Comment=%comment%" %source%
TOC извлечённого CD
Трек | Старт | Длительность | Начальный сектор | Конечный сектор
---------------------------------------------------------------------
1 | 0:00.00 | 3:58.50 | 0 | 17899
2 | 3:58.50 | 4:29.37 | 17900 | 38111
3 | 8:28.12 | 3:42.58 | 38112 | 54819
4 | 12:10.70 | 3:42.40 | 54820 | 71509
5 | 15:53.35 | 3:59.40 | 71510 | 89474
6 | 19:53.00 | 4:03.47 | 89475 | 107746
7 | 23:56.47 | 4:14.30 | 107747 | 126826
8 | 28:11.02 | 5:00.33 | 126827 | 149359
9 | 33:11.35 | 5:05.17 | 149360 | 172251
10 | 38:16.52 | 5:04.40 | 172252 | 195091
11 | 43:21.17 | 4:47.15 | 195092 | 216631
12 | 48:08.32 | 5:21.73 | 216632 | 240779
13 | 53:30.30 | 4:56.72 | 240780 | 263051
14 | 58:27.27 | 3:53.13 | 263052 | 280539
Трек 1
Имя файла C:\EAC\ 01. - The Year I Came To Be.wav
Длина предзазора 0:00:02.00
Пиковый уровень 100.0 %
Скорость извлечения 4.8 X
Качество трека 100.0 %
CRC теста 43F64A5C
CRC копии 43F64A5C
Точное извлечение (достоверность 6) [B9702CB9] (AR v2)
Копирование... OK
Трек 2
Имя файла C:\EAC\ 02. - Long As The Rain Keeps Fallin'.wav
Длина предзазора 0:00:02.00
Пиковый уровень 99.4 %
Скорость извлечения 5.4 X
Качество трека 100.0 %
CRC теста 071438DB
CRC копии 071438DB
Точное извлечение (достоверность 6) [4B01CEFA] (AR v2)
Копирование... OK
Трек 3
Имя файла C:\EAC\ 03. - Don't Cry For Me.wav
Пиковый уровень 88.6 %
Скорость извлечения 3.9 X
Качество трека 99.9 %
CRC теста 8C3AAC67
CRC копии 8C3AAC67
Точное извлечение (достоверность 6) [3221B974] (AR v2)
Копирование... OK
Трек 4
Имя файла C:\EAC\ 04. - Father Father.wav
Длина предзазора 0:00:00.68
Пиковый уровень 88.0 %
Скорость извлечения 6.0 X
Качество трека 100.0 %
CRC теста BEB1BB77
CRC копии BEB1BB77
Точное извлечение (достоверность 6) [37A9382B] (AR v2)
Копирование... OK
Трек 5
Имя файла C:\EAC\ 05. - Love Life And Life Loving.wav
Длина предзазора 0:00:00.68
Пиковый уровень 100.0 %
Скорость извлечения 6.5 X
Качество трека 100.0 %
CRC теста 5BE7CD36
CRC копии 5BE7CD36
Точное извлечение (достоверность 6) [1F1857B4] (AR v2)
Копирование... OK
Трек 6
Имя файла C:\EAC\ 06. - Winds Of Change.wav
Длина предзазора 0:00:01.00
Пиковый уровень 92.7 %
Скорость извлечения 6.8 X
Качество трека 100.0 %
CRC теста 83A7ED25
CRC копии 83A7ED25
Точное извлечение (достоверность 6) [9069E1B2] (AR v2)
Копирование... OK
Трек 7
Имя файла C:\EAC\ 07. - Oh Sister.wav
Пиковый уровень 80.1 %
Скорость извлечения 7.2 X
Качество трека 100.0 %
CRC теста 8CB68C1C
CRC копии 8CB68C1C
Точное извлечение (достоверность 6) [DCBE4EE9] (AR v2)
Копирование... OK
Трек 8
Имя файла C:\EAC\ 08. - One Chance.wav
Пиковый уровень 100.0 %
Скорость извлечения 5.6 X
Качество трека 99.9 %
CRC теста 13E0D0C8
CRC копии 13E0D0C8
Точное извлечение (достоверность 6) [4957149C] (AR v2)
Копирование... OK
Трек 9
Имя файла C:\EAC\ 09. - Washington Rain.wav
Длина предзазора 0:00:01.10
Пиковый уровень 95.6 %
Скорость извлечения 8.1 X
Качество трека 100.0 %
CRC теста 61E967A5
CRC копии 61E967A5
Точное извлечение (достоверность 6) [A5EF3A45] (AR v2)
Копирование... OK
Трек 10
Имя файла C:\EAC\ 10. - Where Have They Gone.wav
Длина предзазора 0:00:00.67
Пиковый уровень 100.0 %
Скорость извлечения 8.4 X
Качество трека 100.0 %
CRC теста 8C8D009A
CRC копии 8C8D009A
Точное извлечение (достоверность 6) [5278A96C] (AR v2)
Копирование... OK
Трек 11
Имя файла C:\EAC\ 11. - Change Has Got to Come.wav
Длина предзазора 0:00:01.00
Пиковый уровень 100.0 %
Скорость извлечения 8.5 X
Качество трека 100.0 %
CRC теста DB0F2C8D
CRC копии DB0F2C8D
Точное извлечение (достоверность 6) [46024F60] (AR v2)
Копирование... OK
Трек 12
Имя файла C:\EAC\ 12. - What Is A Soul.wav
Пиковый уровень 71.6 %
Скорость извлечения 9.0 X
Качество трека 100.0 %
CRC теста 5D9F10EF
CRC копии 5D9F10EF
Точное извлечение (достоверность 6) [C8BCD56A] (AR v2)
Копирование... OK
Трек 13
Имя файла C:\EAC\ 13. - Don't Be A Fool.wav
Пиковый уровень 91.0 %
Скорость извлечения 9.1 X
Качество трека 100.0 %
CRC теста 2849AC81
CRC копии 2849AC81
Точное извлечение (достоверность 6) [10A7E9D8] (AR v2)
Копирование... OK
Трек 14
Имя файла C:\EAC\ 14. - It'S Still Raining.wav
Длина предзазора 0:00:03.00
Пиковый уровень 52.2 %
Скорость извлечения 9.1 X
Качество трека 100.0 %
CRC теста D30B5FB2
CRC копии D30B5FB2
Точное извлечение (достоверность 6) [1164D996] (AR v2)
Копирование... OK
Все треки извлечены точно
Ошибок не произошло
Конец отчёта
==== Контрольная сумма отчёта 1C5872C624682A8A712094B7885F0DCE745FA77E0C833B95311628BD9454B7F3 ====
 
Содержание индексной карты (.CUE)
REM GENRE Rock
REM DATE 1991
REM DISCID C20E9C0E
REM COMMENT "ExactAudioCopy v1.1"
PERFORMER "Father Father"
TITLE "We Are All So Very Happy"
FILE " 01. - The Year I Came To Be.wav" WAVE
TRACK 01 AUDIO
TITLE "The Year I Came To Be"
PERFORMER "Father Father"
INDEX 01 00:00:00
TRACK 02 AUDIO
TITLE "Long As The Rain Keeps Fallin'"
PERFORMER "Father Father"
INDEX 00 03:56:50
FILE " 02. - Long As The Rain Keeps Fallin'.wav" WAVE
INDEX 01 00:00:00
FILE " 03. - Don't Cry For Me.wav" WAVE
TRACK 03 AUDIO
TITLE "Don't Cry For Me"
PERFORMER "Father Father"
INDEX 01 00:00:00
TRACK 04 AUDIO
TITLE "Father Father"
PERFORMER "Father Father"
INDEX 00 03:41:65
FILE " 04. - Father Father.wav" WAVE
INDEX 01 00:00:00
TRACK 05 AUDIO
TITLE "Love Life And Life Loving"
PERFORMER "Father Father"
INDEX 00 03:41:47
FILE " 05. - Love Life And Life Loving.wav" WAVE
INDEX 01 00:00:00
TRACK 06 AUDIO
TITLE "Winds Of Change"
PERFORMER "Father Father"
INDEX 00 03:58:40
FILE " 06. - Winds Of Change.wav" WAVE
INDEX 01 00:00:00
FILE " 07. - Oh Sister.wav" WAVE
TRACK 07 AUDIO
TITLE "Oh Sister"
PERFORMER "Father Father"
INDEX 01 00:00:00
FILE " 08. - One Chance.wav" WAVE
TRACK 08 AUDIO
TITLE "One Chance"
PERFORMER "Father Father"
INDEX 01 00:00:00
TRACK 09 AUDIO
TITLE "Washington Rain"
PERFORMER "Father Father"
INDEX 00 04:59:23
FILE " 09. - Washington Rain.wav" WAVE
INDEX 01 00:00:00
TRACK 10 AUDIO
TITLE "Where Have They Gone?"
PERFORMER "Father Father"
INDEX 00 05:04:25
FILE " 10. - Where Have They Gone.wav" WAVE
INDEX 01 00:00:00
TRACK 11 AUDIO
TITLE "Change Has Got to Come"
PERFORMER "Father Father"
INDEX 00 05:03:40
FILE " 11. - Change Has Got to Come.wav" WAVE
INDEX 01 00:00:00
FILE " 12. - What Is A Soul.wav" WAVE
TRACK 12 AUDIO
TITLE "What Is A Soul"
PERFORMER "Father Father"
INDEX 01 00:00:00
FILE " 13. - Don't Be A Fool.wav" WAVE
TRACK 13 AUDIO
TITLE "Don't Be A Fool"
PERFORMER "Father Father"
INDEX 01 00:00:00
TRACK 14 AUDIO
TITLE "It'S Still Raining"
PERFORMER "Father Father"
INDEX 00 04:53:72
FILE " 14. - It'S Still Raining.wav" WAVE
INDEX 01 00:00:00
Доп. информация: https://www.discogs.com/Father-Father-We-Are-All-So-Very-Happy/master/105973
Приватный:
Нет (DHT включён)
Размер:
616.63 Мб (646,580,688 байт) » файлов: 27
Участники:
0 раздают, 0 качают (0 участников всего)
Внешние участники:
2 раздают, 1 качают (3 участников всего) [ Обновить ]
Есть вопросы - пишите личное сообщение пользователю M0p94ok.
10:26
72
Нет комментариев. Ваш будет первым!