Поиск

(Funk, Soul) [CD] Dyson's Faces - Dyson's Faces - 1995, FLAC (tracks+.cue), lossless

(Funk, Soul) [CD] Dyson's Faces - Dyson's Faces - 1995, FLAC (tracks+.cue), lossless
Треклист:
Dyson's Faces - Dyson's Faces Жанр: Funk, Soul
Носитель: CD
Страна-производитель диска (релиза): Japan
Год издания: 1995
Издатель (лейбл): P-VINE
Номер по каталогу: PCD-4736
Аудиокодек: FLAC (*.flac)
Тип рипа: tracks+.cue
Битрейт аудио: lossless
Продолжительность: 59:13
Rip by JET 1
Наличие сканов в содержимом раздачи: да
Треклист:
01. What You Gonna Say Today (3:36)
02. Happy Days Again (5:26)
03. Welcome To All This Love Again (2:51)
04. Don't Worry About The Joneses (3:58)
05. We're Two Fools In Love (2:50)
06. Wait A Minute Girl (6:45)
07. Nosey People (4:07)
08. Till I've Got This Feelin' Of Love (3:46)
09. Cry Sugar (4:16)
10. Working My Way To Something Better (3:52)
11. This Time It's Gotta Be Love (3:14)
12. You And Me (4:29)
13. Try Me Baby (3:47)
14. Till I've Got This Feelin' Of Love (Instrumental) (6:16)
 
 
Лог создания рипа
Exact Audio Copy V1.0 beta 3 from 29. August 2011
EAC extraction logfile from 29. August 2015, 2:06
Dyson's Faces / Dyson's Faces
Used drive : GENERIC CDRCB05 Adapter: 4 ID: 0
Read mode : Secure
Utilize accurate stream : Yes
Defeat audio cache : Yes
Make use of C2 pointers : No
Read offset correction : 102
Overread into Lead-In and Lead-Out : No
Fill up missing offset samples with silence : Yes
Delete leading and trailing silent blocks : No
Null samples used in CRC calculations : Yes
Used interface : Native Win32 interface for Win NT & 2000
Gap handling : Appended to previous track
Used output format : User Defined Encoder
Selected bitrate : 1024 kBit/s
Quality : High
Add ID3 tag : No
Command line compressor : C:\Program Files\FLAC\flac.exe
Additional command line options : -8 -V -T "ARTIST=%artist%" -T "TITLE=%title%" -T "ALBUM=%albumtitle%" -T "DATE=%year%" -T "TRACKNUMBER=%tracknr%" -T "GENRE=%genre%" -T "PERFORMER=%albuminterpret%" -T "COMPOSER=%composer%" %haslyrics%--tag-from-file=LYRICS="%lyricsfile%"%haslyrics% -T "ALBUMARTIST=%albumartist%" -T "DISCNUMBER=%cdnumber%" -T "TOTALDISCS=%totalcds%" -T "TOTALTRACKS=%numtracks%" -T "COMMENT=%comment%" %source% -o %dest%
TOC of the extracted CD
Track | Start | Length | Start sector | End sector
---------------------------------------------------------
1 | 0:00.00 | 3:35.42 | 0 | 16166
2 | 3:35.42 | 5:26.05 | 16167 | 40621
3 | 9:01.47 | 2:51.25 | 40622 | 53471
4 | 11:52.72 | 3:57.63 | 53472 | 71309
5 | 15:50.60 | 2:49.65 | 71310 | 84049
6 | 18:40.50 | 6:44.67 | 84050 | 114416
7 | 25:25.42 | 4:07.13 | 114417 | 132954
8 | 29:32.55 | 3:45.67 | 132955 | 149896
9 | 33:18.47 | 4:15.63 | 149897 | 169084
10 | 37:34.35 | 3:52.32 | 169085 | 186516
11 | 41:26.67 | 3:13.73 | 186517 | 201064
12 | 44:40.65 | 4:28.67 | 201065 | 221231
13 | 49:09.57 | 3:47.20 | 221232 | 238276
14 | 52:57.02 | 6:16.30 | 238277 | 266506
Track 1
Filename G:\POSTS\DYSON'S FACES 1975+1977 (1995)\01 - What You Gonna Say Today.wav
Pre-gap length 0:00:02.00
Peak level 99.9 %
Extraction speed 1.3 X
Track quality 100.0 %
Test CRC B92F0698
Copy CRC B92F0698
Track not present in AccurateRip database
Copy OK
Track 2
Filename G:\POSTS\DYSON'S FACES 1975+1977 (1995)\02 - Happy Days Again.wav
Pre-gap length 0:00:01.17
Peak level 99.9 %
Extraction speed 1.6 X
Track quality 100.0 %
Test CRC 3329D6CF
Copy CRC 3329D6CF
Track not present in AccurateRip database
Copy OK
Track 3
Filename G:\POSTS\DYSON'S FACES 1975+1977 (1995)\03 - Welcome To All This Love Again.wav
Pre-gap length 0:00:01.62
Peak level 99.9 %
Extraction speed 1.4 X
Track quality 99.9 %
Test CRC 56334C42
Copy CRC 56334C42
Track not present in AccurateRip database
Copy OK
Track 4
Filename G:\POSTS\DYSON'S FACES 1975+1977 (1995)\04 - Don't Worry About The Joneses.wav
Pre-gap length 0:00:01.52
Peak level 86.2 %
Extraction speed 1.8 X
Track quality 100.0 %
Test CRC 0725DE5B
Copy CRC 0725DE5B
Track not present in AccurateRip database
Copy OK
Track 5
Filename G:\POSTS\DYSON'S FACES 1975+1977 (1995)\05 - We're Two Fools In Love.wav
Pre-gap length 0:00:01.40
Peak level 99.9 %
Extraction speed 1.8 X
Track quality 100.0 %
Test CRC 6E295D7D
Copy CRC 6E295D7D
Track not present in AccurateRip database
Copy OK
Track 6
Filename G:\POSTS\DYSON'S FACES 1975+1977 (1995)\06 - Wait A Minute Girl.wav
Pre-gap length 0:00:01.58
Peak level 95.1 %
Extraction speed 2.2 X
Track quality 100.0 %
Test CRC 75D0308A
Copy CRC 75D0308A
Track not present in AccurateRip database
Copy OK
Track 7
Filename G:\POSTS\DYSON'S FACES 1975+1977 (1995)\07 - Nosey People.wav
Pre-gap length 0:00:01.45
Peak level 99.9 %
Extraction speed 2.2 X
Track quality 100.0 %
Test CRC 62C02984
Copy CRC 62C02984
Track not present in AccurateRip database
Copy OK
Track 8
Filename G:\POSTS\DYSON'S FACES 1975+1977 (1995)\08 - Till I've Got This Feelin' Of Love.wav
Pre-gap length 0:00:01.60
Peak level 96.0 %
Extraction speed 2.3 X
Track quality 100.0 %
Test CRC CDBEC526
Copy CRC CDBEC526
Track not present in AccurateRip database
Copy OK
Track 9
Filename G:\POSTS\DYSON'S FACES 1975+1977 (1995)\09 - Cry Sugar.wav
Pre-gap length 0:00:02.42
Peak level 94.7 %
Extraction speed 2.4 X
Track quality 100.0 %
Test CRC 6B2841C9
Copy CRC 6B2841C9
Track not present in AccurateRip database
Copy OK
Track 10
Filename G:\POSTS\DYSON'S FACES 1975+1977 (1995)\10 - Working My Way To Something Better.wav
Pre-gap length 0:00:01.15
Peak level 99.9 %
Extraction speed 2.5 X
Track quality 100.0 %
Test CRC 1A70C031
Copy CRC 1A70C031
Track not present in AccurateRip database
Copy OK
Track 11
Filename G:\POSTS\DYSON'S FACES 1975+1977 (1995)\11 - This Time It's Gotta Be Love.wav
Pre-gap length 0:00:01.57
Peak level 89.0 %
Extraction speed 2.5 X
Track quality 100.0 %
Test CRC E4C7B417
Copy CRC E4C7B417
Track not present in AccurateRip database
Copy OK
Track 12
Filename G:\POSTS\DYSON'S FACES 1975+1977 (1995)\12 - You And Me.wav
Pre-gap length 0:00:01.28
Peak level 88.9 %
Extraction speed 2.4 X
Track quality 99.9 %
Test CRC 8934AC2D
Copy CRC 8934AC2D
Track not present in AccurateRip database
Copy OK
Track 13
Filename G:\POSTS\DYSON'S FACES 1975+1977 (1995)\13 - Try Me Baby.wav
Pre-gap length 0:00:02.00
Peak level 93.3 %
Extraction speed 2.7 X
Track quality 100.0 %
Test CRC D3959AA6
Copy CRC D3959AA6
Track not present in AccurateRip database
Copy OK
Track 14
Filename G:\POSTS\DYSON'S FACES 1975+1977 (1995)\14 - Till I've Got This Feelin' Of Love (Instrumental).wav
Pre-gap length 0:00:01.70
Peak level 94.1 %
Extraction speed 3.0 X
Track quality 100.0 %
Test CRC 02D40E09
Copy CRC 02D40E09
Track not present in AccurateRip database
Copy OK
None of the tracks are present in the AccurateRip database
No errors occurred
End of status report
==== Log checksum 691BAF72DC78F6EED8AF663379DB793A0E57949D4F6D3301F3A9A774CA1F81A4 ====
 
Содержание индексной карты (.CUE)
REM GENRE R&B
REM DATE 1995
REM DISCID BA0DE10E
REM COMMENT "ExactAudioCopy v1.0b3"
PERFORMER "Dyson's Faces"
TITLE "Dyson's Faces"
FILE "01 - What You Gonna Say Today.wav" WAVE
TRACK 01 AUDIO
TITLE "What You Gonna Say Today"
PERFORMER "Dyson's Faces"
INDEX 01 00:00:00
TRACK 02 AUDIO
TITLE "Happy Days Again"
PERFORMER "Dyson's Faces"
INDEX 00 03:34:25
FILE "02 - Happy Days Again.wav" WAVE
INDEX 01 00:00:00
TRACK 03 AUDIO
TITLE "Welcome To All This Love Again"
PERFORMER "Dyson's Faces"
INDEX 00 05:24:18
FILE "03 - Welcome To All This Love Again.wav" WAVE
INDEX 01 00:00:00
TRACK 04 AUDIO
TITLE "Don't Worry About The Joneses"
PERFORMER "Dyson's Faces"
INDEX 00 02:49:48
FILE "04 - Don't Worry About The Joneses.wav" WAVE
INDEX 01 00:00:00
TRACK 05 AUDIO
TITLE "We're Two Fools In Love"
PERFORMER "Dyson's Faces"
INDEX 00 03:56:23
FILE "05 - We're Two Fools In Love.wav" WAVE
INDEX 01 00:00:00
TRACK 06 AUDIO
TITLE "Wait A Minute Girl"
PERFORMER "Dyson's Faces"
INDEX 00 02:48:07
FILE "06 - Wait A Minute Girl.wav" WAVE
INDEX 01 00:00:00
TRACK 07 AUDIO
TITLE "Nosey People"
PERFORMER "Dyson's Faces"
INDEX 00 06:43:22
FILE "07 - Nosey People.wav" WAVE
INDEX 01 00:00:00
TRACK 08 AUDIO
TITLE "Till I've Got This Feelin' Of Love "
PERFORMER "Dyson's Faces"
INDEX 00 04:05:28
FILE "08 - Till I've Got This Feelin' Of Love.wav" WAVE
INDEX 01 00:00:00
TRACK 09 AUDIO
TITLE "Cry Sugar"
PERFORMER "Dyson's Faces"
INDEX 00 03:43:25
FILE "09 - Cry Sugar.wav" WAVE
INDEX 01 00:00:00
TRACK 10 AUDIO
TITLE "Working My Way To Something Better"
PERFORMER "Dyson's Faces"
INDEX 00 04:14:48
FILE "10 - Working My Way To Something Better.wav" WAVE
INDEX 01 00:00:00
TRACK 11 AUDIO
TITLE "This Time It's Gotta Be Love"
PERFORMER "Dyson's Faces"
INDEX 00 03:50:50
FILE "11 - This Time It's Gotta Be Love.wav" WAVE
INDEX 01 00:00:00
TRACK 12 AUDIO
TITLE "You And Me"
PERFORMER "Dyson's Faces"
INDEX 00 03:12:45
FILE "12 - You And Me.wav" WAVE
INDEX 01 00:00:00
TRACK 13 AUDIO
TITLE "Try Me Baby"
PERFORMER "Dyson's Faces"
INDEX 00 04:26:67
FILE "13 - Try Me Baby.wav" WAVE
INDEX 01 00:00:00
TRACK 14 AUDIO
TITLE "Till I've Got This Feelin' Of Love (Instrumental)"
PERFORMER "Dyson's Faces"
INDEX 00 03:45:25
FILE "14 - Till I've Got This Feelin' Of Love (Instrumental).wav" WAVE
INDEX 01 00:00:00
Приватный:
Нет (DHT включён)
Размер:
483.91 Мб (507,419,021 байт) » файлов: 28
Участники:
0 раздают, 0 качают (0 участников всего)
Внешние участники:
2 раздают, 1 качают (3 участников всего) [ Обновить ]
Есть вопросы - пишите личное сообщение пользователю M0p94ok.
07:47
123
Нет комментариев. Ваш будет первым!