Поиск

(Funk, Soul) [CD] Creative Source - Creative Source (1973) - 2014, FLAC (tracks+.cue), lossless

(Funk, Soul) [CD] Creative Source - Creative Source (1973) - 2014, FLAC (tracks+.cue), lossless
Треклист:
Creative Source - Creative Source (1973) Жанр: Funk, Soul
Носитель: CD
Год издания: 2014
Издатель (лейбл): Solaris
Номер по каталогу: SOLCD-1207
Аудиокодек: FLAC (*.flac)
Тип рипа: tracks+.cue
Битрейт аудио: lossless
Продолжительность: 57:41
Rip by JET 1
Наличие сканов в содержимом раздачи: да
Треклист:
01. You Can't Hide Love (3:23)
02. Let Me In Your Life (3:07)
03. Lovesville (4:01)
04. You're Too Good To Be True (3:33)
05. Wild Flower (4:42)
06. Magic Carpet Ride (3:14)
07. Who Is He And What Is He To You (11:43)
08. Oh Love (3:29)
09. Corazón (4:43)
10. Pass The Feeling On (4:57)
11. I Want Ya (Loving Me) (3:53)
12. I'd Find You Anywhere (3:21)
13. Who Is He And What Is He To You (Single version) (3:36)
 
 
Лог создания рипа
Exact Audio Copy V1.0 beta 3 from 29. August 2011
EAC extraction logfile from 5. December 2015, 20:49
Creative Source / ...And More
Used drive : GENERIC CDRCB05 Adapter: 4 ID: 0
Read mode : Secure
Utilize accurate stream : Yes
Defeat audio cache : Yes
Make use of C2 pointers : No
Read offset correction : 102
Overread into Lead-In and Lead-Out : No
Fill up missing offset samples with silence : Yes
Delete leading and trailing silent blocks : No
Null samples used in CRC calculations : Yes
Used interface : Native Win32 interface for Win NT & 2000
Gap handling : Appended to previous track
Used output format : User Defined Encoder
Selected bitrate : 1024 kBit/s
Quality : High
Add ID3 tag : No
Command line compressor : C:\Program Files\FLAC\flac.exe
Additional command line options : -8 -V -T "ARTIST=%artist%" -T "TITLE=%title%" -T "ALBUM=%albumtitle%" -T "DATE=%year%" -T "TRACKNUMBER=%tracknr%" -T "GENRE=%genre%" -T "PERFORMER=%albuminterpret%" -T "COMPOSER=%composer%" %haslyrics%--tag-from-file=LYRICS="%lyricsfile%"%haslyrics% -T "ALBUMARTIST=%albumartist%" -T "DISCNUMBER=%cdnumber%" -T "TOTALDISCS=%totalcds%" -T "TOTALTRACKS=%numtracks%" -T "COMMENT=%comment%" %source% -o %dest%
TOC of the extracted CD
Track | Start | Length | Start sector | End sector
---------------------------------------------------------
1 | 0:00.00 | 3:22.40 | 0 | 15189
2 | 3:22.40 | 3:06.72 | 15190 | 29211
3 | 6:29.37 | 4:01.18 | 29212 | 47304
4 | 10:30.55 | 3:32.55 | 47305 | 63259
5 | 14:03.35 | 4:42.00 | 63260 | 84409
6 | 18:45.35 | 3:13.47 | 84410 | 98931
7 | 21:59.07 | 11:43.08 | 98932 | 151664
8 | 33:42.15 | 3:29.27 | 151665 | 167366
9 | 37:11.42 | 4:42.65 | 167367 | 188581
10 | 41:54.32 | 4:56.58 | 188582 | 210839
11 | 46:51.15 | 3:53.12 | 210840 | 228326
12 | 50:44.27 | 3:20.60 | 228327 | 243386
13 | 54:05.12 | 3:35.48 | 243387 | 259559
Track 1
Filename F:\POSTS\Creative Source - Creative Source (1973) [2014]\01 - You Can't Hide Love.wav
Pre-gap length 0:00:02.00
Peak level 100.0 %
Extraction speed 1.9 X
Track quality 99.9 %
Test CRC 52B22117
Copy CRC 52B22117
Cannot be verified as accurate (confidence 3) [CD45F2A8], AccurateRip returned [F71B4ACE] (AR v2)
Copy OK
Track 2
Filename F:\POSTS\Creative Source - Creative Source (1973) [2014]\02 - Let Me In Your Life.wav
Peak level 95.3 %
Extraction speed 2.4 X
Track quality 100.0 %
Test CRC 32024361
Copy CRC 32024361
Cannot be verified as accurate (confidence 3) [E1E3D30B], AccurateRip returned [683D53E0] (AR v2)
Copy OK
Track 3
Filename F:\POSTS\Creative Source - Creative Source (1973) [2014]\03 - Lovesville.wav
Peak level 100.0 %
Extraction speed 2.7 X
Track quality 100.0 %
Test CRC 9B363E1E
Copy CRC 9B363E1E
Cannot be verified as accurate (confidence 3) [4743774B], AccurateRip returned [8ECD914D] (AR v2)
Copy OK
Track 4
Filename F:\POSTS\Creative Source - Creative Source (1973) [2014]\04 - You're Too Good To Be True.wav
Peak level 100.0 %
Extraction speed 2.9 X
Track quality 100.0 %
Test CRC BF82C9B4
Copy CRC BF82C9B4
Cannot be verified as accurate (confidence 3) [A29D3BFE], AccurateRip returned [FC8452F5] (AR v2)
Copy OK
Track 5
Filename F:\POSTS\Creative Source - Creative Source (1973) [2014]\05 - Wild Flower.wav
Peak level 100.0 %
Extraction speed 3.2 X
Track quality 100.0 %
Test CRC 9E8F867D
Copy CRC 9E8F867D
Cannot be verified as accurate (confidence 3) [77255338], AccurateRip returned [4DCC6978] (AR v2)
Copy OK
Track 6
Filename F:\POSTS\Creative Source - Creative Source (1973) [2014]\06 - Magic Carpet Ride.wav
Peak level 100.0 %
Extraction speed 3.2 X
Track quality 100.0 %
Test CRC 8B624F80
Copy CRC 8B624F80
Cannot be verified as accurate (confidence 3) [C07A24B8], AccurateRip returned [CCCE213F] (AR v2)
Copy OK
Track 7
Filename F:\POSTS\Creative Source - Creative Source (1973) [2014]\07 - Who Is He And What Is He To You.wav
Peak level 100.0 %
Extraction speed 4.0 X
Track quality 100.0 %
Test CRC 9055D85E
Copy CRC 9055D85E
Cannot be verified as accurate (confidence 3) [790F9D69], AccurateRip returned [77BE43D9] (AR v2)
Copy OK
Track 8
Filename F:\POSTS\Creative Source - Creative Source (1973) [2014]\08 - Oh Love.wav
Peak level 100.0 %
Extraction speed 3.9 X
Track quality 100.0 %
Test CRC 400E1134
Copy CRC 400E1134
Cannot be verified as accurate (confidence 3) [AE8EF729], AccurateRip returned [A732C9DB] (AR v2)
Copy OK
Track 9
Filename F:\POSTS\Creative Source - Creative Source (1973) [2014]\09 - Corazón.wav
Peak level 98.6 %
Extraction speed 3.7 X
Track quality 99.9 %
Test CRC B225E606
Copy CRC B225E606
Cannot be verified as accurate (confidence 4) [8057C74A], AccurateRip returned [1579B962] (AR v2)
Copy OK
Track 10
Filename F:\POSTS\Creative Source - Creative Source (1973) [2014]\10 - Pass The Feeling On.wav
Peak level 99.9 %
Extraction speed 3.9 X
Track quality 99.9 %
Test CRC 672E9B9E
Copy CRC 672E9B9E
Cannot be verified as accurate (confidence 3) [77C4E6BF], AccurateRip returned [047372DE] (AR v2)
Copy OK
Track 11
Filename F:\POSTS\Creative Source - Creative Source (1973) [2014]\11 - I Want Ya (Loving Me).wav
Peak level 100.0 %
Extraction speed 4.4 X
Track quality 100.0 %
Test CRC 80D94248
Copy CRC 80D94248
Cannot be verified as accurate (confidence 3) [FA797321], AccurateRip returned [3471CF56] (AR v2)
Copy OK
Track 12
Filename F:\POSTS\Creative Source - Creative Source (1973) [2014]\12 - I'd Find You Anywhere.wav
Peak level 100.0 %
Extraction speed 4.4 X
Track quality 100.0 %
Test CRC 772D0419
Copy CRC 772D0419
Cannot be verified as accurate (confidence 3) [37BA3AEC], AccurateRip returned [B0F8209B] (AR v2)
Copy OK
Track 13
Filename F:\POSTS\Creative Source - Creative Source (1973) [2014]\13 - Who Is He And What Is He To You (Single version).wav
Peak level 100.0 %
Extraction speed 4.6 X
Track quality 100.0 %
Test CRC B28CEC53
Copy CRC B28CEC53
Cannot be verified as accurate (confidence 3) [161FC718], AccurateRip returned [F6F8BEDB] (AR v2)
Copy OK
No tracks could be verified as accurate
You may have a different pressing from the one(s) in the database
No errors occurred
End of status report
==== Log checksum A5DE82F1C13F96201533E6DC22F4CFBEE412F2119BCF23299D57E3A0ED12F142 ====
 
Содержание индексной карты (.CUE)
REM GENRE Soul, Funk
REM DATE 1973
REM DISCID 8E0D840D
REM COMMENT "ExactAudioCopy v1.0b3"
PERFORMER "Creative Source"
TITLE "...And More"
FILE "01 - You Can't Hide Love.wav" WAVE
TRACK 01 AUDIO
TITLE "You Can't Hide Love"
PERFORMER "Creative Source"
FLAGS DCP
INDEX 01 00:00:00
FILE "02 - Let Me In Your Life.wav" WAVE
TRACK 02 AUDIO
TITLE "Let Me In Your Life"
PERFORMER "Creative Source"
FLAGS DCP
INDEX 01 00:00:00
FILE "03 - Lovesville.wav" WAVE
TRACK 03 AUDIO
TITLE "Lovesville"
PERFORMER "Creative Source"
FLAGS DCP
INDEX 01 00:00:00
FILE "04 - You're Too Good To Be True.wav" WAVE
TRACK 04 AUDIO
TITLE "You're Too Good To Be True"
PERFORMER "Creative Source"
FLAGS DCP
INDEX 01 00:00:00
FILE "05 - Wild Flower.wav" WAVE
TRACK 05 AUDIO
TITLE "Wild Flower"
PERFORMER "Creative Source"
FLAGS DCP
INDEX 01 00:00:00
FILE "06 - Magic Carpet Ride.wav" WAVE
TRACK 06 AUDIO
TITLE "Magic Carpet Ride"
PERFORMER "Creative Source"
FLAGS DCP
INDEX 01 00:00:00
FILE "07 - Who Is He And What Is He To You.wav" WAVE
TRACK 07 AUDIO
TITLE "Who Is He And What Is He To You"
PERFORMER "Creative Source"
FLAGS DCP
INDEX 01 00:00:00
FILE "08 - Oh Love.wav" WAVE
TRACK 08 AUDIO
TITLE "Oh Love"
PERFORMER "Creative Source"
FLAGS DCP
INDEX 01 00:00:00
FILE "09 - Corazon.wav" WAVE
TRACK 09 AUDIO
TITLE "Corazon"
PERFORMER "Creative Source"
FLAGS DCP
INDEX 01 00:00:00
FILE "10 - Pass The Feeling On.wav" WAVE
TRACK 10 AUDIO
TITLE "Pass The Feeling On"
PERFORMER "Creative Source"
FLAGS DCP
INDEX 01 00:00:00
FILE "11 - I Want Ya (Loving Me).wav" WAVE
TRACK 11 AUDIO
TITLE "I Want Ya (Loving Me)"
PERFORMER "Creative Source"
FLAGS DCP
INDEX 01 00:00:00
FILE "12 - I'd Find You Anywhere.wav" WAVE
TRACK 12 AUDIO
TITLE "I'd Find You Anywhere"
PERFORMER "Creative Source"
FLAGS DCP
INDEX 01 00:00:00
FILE "13 - Who Is He And What Is He To You (Single version).wav" WAVE
TRACK 13 AUDIO
TITLE "Who Is He And What Is He To You (Single version)"
PERFORMER "Creative Source"
FLAGS DCP
INDEX 01 00:00:00
Приватный:
Нет (DHT включён)
Размер:
423.67 Мб (444,251,176 байт) » файлов: 22
Участники:
0 раздают, 0 качают (0 участников всего)
Внешние участники:
3 раздают, 1 качают (4 участников всего) [ Обновить ]
No seeders - write a personal message to user M0p94ok. Нет сидеров - пишите личное сообщение пользователю M0p94ok.
08:58
126
Нет комментариев. Ваш будет первым!